Zid (2014) (MUSIC VIDEO ALBUM) Untouched WEBHD 1080p AVC x264 AC3 5.1 ESuBS

Zid (2014) (MUSIC VIDEO ALBUM) Untouched WEBHD 1080p AVC x264 AC3 5.1 ESuBS

General
Format : Matroska
Format version : Version 4
File size : 783 MB
Overall bit rate : 8 419 kb/s
Encoded date : UTC 2019-04-07 06:45:27
Writing application : mkvmerge v32.0.0 (‘Astral Progressions’) 64-bit
Writing library : libebml v1.3.7 + libmatroska v1.5.0

Video
ID : 1
Format : AVC
Format/Info : Advanced Video Codec
Format profile : [email protected]
Format settings : CABAC / 5 Ref Frames
Format settings, CABAC : Yes
Format settings, RefFrames : 5 frames
Codec ID : V_MPEG4/ISO/AVC
Bit rate : 7 853 kb/s
Width : 1 920 pixels
Height : 816 pixels
Display aspect ratio : 2.35:1
Frame rate mode : Constant
Frame rate : 24.000 FPS
Color space : YUV
Chroma subsampling : 4:2:0
Bit depth : 8 bits
Scan type : Progressive
Bits/(Pixel*Frame) : 0.209
Stream size : 110 MiB (93%)
Title : [By-DusIcTv]
Default : Yes
Forced : No
Color range : Limited
Color primaries : BT.709
Transfer characteristics : BT.709
Matrix coefficients : BT.709

Audio #1
ID : 2
Format : AAC LC
Format/Info : Advanced Audio Codec Low Complexity
Codec ID : A_AAC-2
Bit rate : 180 kb/s
Channel(s) : 2 channels
Channel layout : L R
Sampling rate : 48.0 kHz
Frame rate : 46.875 FPS (1024 SPF)
Compression mode : Lossy
Delay relative to video : 1 ms
Stream size : 2.52 MiB (2%)
Title : [By-DusIcTv]
Language : Hindi
Default : No
Forced : No


ScreenShots

ba145d7cbfc9b6487d0a2c06be5c3ea3.png
d57660b1bd433d6624a369a27eb79b85.png
3276cdcec5c386a79e2d8ae95f99714e.png
a8ce6b6b5c605be7001aa91a0d6c9ccf.png
87294a0093a11ace96b795fb48c9ee37.png
0178de98d319d27e931daf07061bd690.png
377022b2937b69f2073ac532a7a85a51.png
d9b273b8aea0a8452183eee90d785ea3.png
09a5e36ae3f5f0ac48b260802ad4f7c3.png
593dd82c9d0be67564210b24f3b91fc8.png
dfda0df1354f016fe64faaffc5506d40.png

{ G-drive } Download  Link 

0 0 vote
Article Rating
Subscribe
Notify of
guest
0 Comments
Inline Feedbacks
View all comments