Yeh Jawaani Hai Deewani (2013) (MUSIC VIDEOS ALBUM) 1080p Blu-Ray Rip x264 DTS-HDMA 5.1 By-DusIcTv

xxxxxxxxxxxxxxxxxxxxxxxxxxxxxxxxxxxxxxxxxxxxxxxxxxxxxxxxxxxxxxx
Yeh Jawaani Hai Deewani (2013) (MUSIC VIDEOS ALBUM) 1080p Blu-Ray Rip x264 DTS-HDMA 5.1 By-DusIcTv
xxxxxxxxxxxxxxxxxxxxxxxxxxxxxxxxxxxxxxxxxxxxxxxxxxxxxxxxxxxxxxx

Media info
General
Format                                   : Matroska
Format version                           : Version 4
File size                                : 5.02 GB
Overall bit rate mode                    : Variable
Overall bit rate                         : 16.0 Mb/s
Encoded date                             : UTC 2019-08-27 14:18:45
Writing application                      : mkvmerge v36.0.0 (‘Is That Jazz?’) 32-bit
Writing library                          : libebml v1.3.9 + libmatroska v1.5.2

Video
ID                                       : 1
Format                                   : AVC
Format/Info                              : Advanced Video Codec
Format profile                           : [email protected]
Format settings                          : CABAC / 4 Ref Frames
Format settings, CABAC                   : Yes
Format settings, Reference frames        : 4 frames
Codec ID                                 : V_MPEG4/ISO/AVC
Bit rate                                 : 12.1 Mb/s
Width                                    : 1 920 pixels
Height                                   : 816 pixels
Display aspect ratio                     : 2.35:1
Frame rate mode                          : Constant
Frame rate                               : 24.000 FPS
Color space                              : YUV
Chroma subsampling                       : 4:2:0
Bit depth                                : 8 bits
Scan type                                : Progressive
Bits/(Pixel*Frame)                       : 0.321
Stream size                              : 241 MiB (75%)
Title                                    : DusIcTv
Default                                  : Yes
Forced                                   : No

Audio #1
ID                                       : 2
Format                                   : DTS XLL
Format/Info                              : Digital Theater Systems
Commercial name                          : DTS-HD Master Audio
Codec ID                                 : A_DTS
Bit rate mode                            : Variable
Bit rate                                 : 1 994 kb/s
Channel(s)                               : 6 channels
Channel layout                           : C L R Ls Rs LFE
Sampling rate                            : 48.0 kHz
Frame rate                               : 93.750 FPS (512 SPF)
Bit depth                                : 16 bits
Compression mode                         : Lossless
Delay relative to video                  : 1 ms
Stream size                              : 39.8 MiB (12%)
Title                                    : DusIcTv
Language                                 : Hindi
Default                                  : Yes
Forced                                   : No

Audio #2
ID                                       : 3
Format                                   : DTS XLL
Format/Info                              : Digital Theater Systems
Commercial name                          : DTS-HD Master Audio
Codec ID                                 : A_DTS
Bit rate mode                            : Variable
Bit rate                                 : 1 925 kb/s
Channel(s)                               : 6 channels
Channel layout                           : C L R Ls Rs LFE
Sampling rate                            : 48.0 kHz
Frame rate                               : 93.750 FPS (512 SPF)
Bit depth                                : 16 bits
Compression mode                         : Lossless
Delay relative to video                  : 1 ms
Stream size                              : 38.4 MiB (12%)
Title                                    : German
Language                                 : German
Default                                  : No
Forced                                   : No

Text #1
ID                                       : 4
Format                                   : PGS
Muxing mode                              : zlib
Codec ID                                 : S_HDMV/PGS
Codec ID/Info                            : Picture based subtitle format used on BDs/HD-DVDs
Bit rate                                 : 12.6 kb/s
Count of elements                        : 34
Stream size                              : 255 KiB (0%)
Title                                    : English
Language                                 : English
Default                                  : Yes
Forced                                   : No

Text #2
ID                                       : 5
Format                                   : PGS
Muxing mode                              : zlib
Codec ID                                 : S_HDMV/PGS
Codec ID/Info                            : Picture based subtitle format used on BDs/HD-DVDs
Bit rate                                 : 21.1 kb/s
Count of elements                        : 48
Stream size                              : 427 KiB (0%)
Title                                    : German
Language                                 : German
Default                                  : No
Forced                                   : No

01-Kabira ( 1st) [By-DusIcTv].mkv – 319.7 MB

02-Ghagra [By-DusIcTv].mkv – 564.9 MB

03-Subhanallah [By-DusIcTv].mkv – 445.0 MB

04-Balam Pichkari [By-DusIcTv].mkv – 599.8 MB

05-Ilahi [By-DusIcTv].mkv – 454.6 MB

06-Badtameez Dil [By-DusIcTv].mkv – 654.4 MB

07-Kabira (2nd) [By-DusIcTv].mkv – 174.3 MB

08-Dilliwaali Girlfriend [By-DusIcTv].mkv – 441.7 MB

09-Kabira (3rd) [By-DusIcTv].mkv – 512.2 MB

10- Suno Na [By-DusIcTv].mkv – 124.4 MB

11-Ilahi + Others (End Roll) [By-DusIcTv].mkv – 854.6 MB

0 0 vote
Article Rating
Subscribe
Notify of
guest
2 Comments
Oldest
Newest Most Voted
Inline Feedbacks
View all comments
Dishalover
Dishalover
1 year ago

please upload race 3 2018 all video song 1080p…. please…..

Mehedi Hasan
Mehedi Hasan
1 year ago

Plz Bro Salam-e Ishq Movie Ka Song Full HD Mai Upload Kardo. PLZ……. PLZ …….