xXx Return of Xander Cage (2017) 1080p BDRip Dual Audio Org BD {Hindi+Eng.5.1}{DJ [email protected]}

Format : Matroska
Format version : Version 4
File size : 3.79 GiB
Duration : 1 h 46 min
Overall bit rate mode : Variable
Overall bit rate : 5 086 kb/s
Movie name : .-~{[email protected]}~-.
Encoded date : UTC 2017-05-27 15:13:46
Writing application : mkvmerge v7.9.0 (‘Birds’) 64bit
Writing library : libebml v1.3.1 + libmatroska v1.4.2

Video
ID : 1
Format : AVC
Format/Info : Advanced Video Codec
Format profile : [email protected]
Format settings : CABAC / 5 Ref Frames
Format settings, CABAC : Yes
Format settings, ReFrames : 5 frames
Codec ID : V_MPEG4/ISO/AVC
Duration : 1 h 46 min
Bit rate mode : Variable
Bit rate : 3 789 kb/s
Maximum bit rate : 62.5 Mb/s
Width : 1 920 pixels
Height : 800 pixels
Display aspect ratio : 2.40:1
Frame rate mode : Constant
Frame rate : 23.976 (24000/1001) FPS
Color space : YUV
Chroma subsampling : 4:2:0
Bit depth : 8 bits
Scan type : Progressive
Bits/(Pixel*Frame) : 0.103
Stream size : 2.82 GiB (74%)

Language : English
Default : Yes
Forced : No

Audio #1
ID : 2
Format : AC-3
Format/Info : Audio Coding 3
Commercial name : Dolby Digital
Codec ID : A_AC3
Duration : 1 h 46 min
Bit rate mode : Constant
Bit rate : 640 kb/s
Channel(s) : 6 channels
Channel layout : L R C LFE Ls Rs
Sampling rate : 48.0 kHz
Frame rate : 31.250 FPS (1536 SPF)
Bit depth : 16 bits
Compression mode : Lossy
Stream size : 489 MiB (13%)
Title : RiPPER~ L3GEND~ ORG BD DOLBY DIGITAL [email protected]~
Language : English
Service kind : Complete Main
Default : No
Forced : No

Audio #2
ID : 3
Format : AC-3
Format/Info : Audio Coding 3
Commercial name : Dolby Digital
Codec ID : A_AC3
Duration : 1 h 46 min
Bit rate mode : Constant
Bit rate : 640 kb/s
Channel(s) : 6 channels
Channel layout : L R C LFE Ls Rs
Sampling rate : 48.0 kHz
Frame rate : 31.250 FPS (1536 SPF)
Bit depth : 16 bits
Compression mode : Lossy
Stream size : 489 MiB (13%)
Title : RiPPER~ L3GEND~ ORG BD DOLBY DIGITAL [email protected]~
Language : Hindi
Service kind : Complete Main
Default : Yes
Forced : No

Text #1
ID : 4
Format : PGS
Muxing mode : zlib
Codec ID : S_HDMV/PGS
Codec ID/Info : Picture based subtitle format used on BDs/HD-DVDs
Duration : 1 h 36 min
Bit rate : 9 615 b/s
Count of elements : 2259
Stream size : 6.62 MiB (0%)
Title : ~Presentation Graphics Subtitles~
Language : English
Default : Yes
Forced : No

Text #2
ID : 5
Format : PGS
Muxing mode : zlib
Codec ID : S_HDMV/PGS
Codec ID/Info : Picture based subtitle format used on BDs/HD-DVDs
Duration : 1 h 43 min
Bit rate : 8 545 b/s
Count of elements : 2283
Stream size : 6.30 MiB (0%)
Title : ~Presentation Graphics Subtitles~
Language : Hindi
Default : No
Forced : No

4650aed896048e4b032e84fa0a5f66ac.jpg
efd0a0bcc4b51770df28439edf31a538.jpg
851550970208cf61d7e8442f22398a1a.jpg
43067f04b086abefb81a6c8d2788e293.jpg
bbf91d01a125d2235831dd8eed8a9e5c.jpg

G-Drive | The File Locker

0 0 vote
Article Rating
Subscribe
Notify of
guest
5 Comments
Oldest
Newest Most Voted
Inline Feedbacks
View all comments
Ulhas Kamble
Ulhas Kamble
1 year ago

Please upload taarzan the wonder car and robot 2010

Robbin Rajgonda
Robbin Rajgonda
1 year ago

Please upload Ragini MMS 2011

⚡️ SAAHO ⚡️
Rohan
1 year ago

I want to upload movies here?

KingPin
KingPin
1 year ago

what happened to the site??… did it get a time travel to last month?? XD