Wonder Woman (2017) 1080p BDRip Org BD {English 6Ch} -~{[email protected]}

Format : Matroska
Format version : Version 4
File size : 4.38 GiB
Duration : 2 h 21 min
Overall bit rate mode : Variable
Overall bit rate : 4 440 kb/s
Movie name : .-~{[email protected]}~-.
Encoded date : UTC 2017-10-13 02:59:09
Writing application : mkvmerge v9.5.0 (‘Quiet Fire’) 64bit
Writing library : libebml v1.3.4 + libmatroska v1.4.5

Video
ID : 1
Format : AVC
Format/Info : Advanced Video Codec
Format profile : [email protected]
Format settings : CABAC / 5 Ref Frames
Format settings, CABAC : Yes
Format settings, ReFrames : 5 frames
Codec ID : V_MPEG4/ISO/AVC
Duration : 2 h 21 min
Bit rate mode : Variable
Bit rate : 3 789 kb/s
Maximum bit rate : 62.5 Mb/s
Width : 1 920 pixels
Height : 800 pixels
Display aspect ratio : 2.40:1
Frame rate mode : Constant
Frame rate : 23.976 (24000/1001) FPS
Color space : YUV
Chroma subsampling : 4:2:0
Bit depth : 8 bits
Scan type : Progressive
Bits/(Pixel*Frame) : 0.103
Stream size : 3.74 GiB (85%)

Audio
ID : 2
Format : AC-3
Format/Info : Audio Coding 3
Commercial name : Dolby Digital
Codec ID : A_AC3
Duration : 2 h 21 min
Bit rate mode : Constant
Bit rate : 640 kb/s
Channel(s) : 6 channels
Channel layout : L R C LFE Ls Rs
Sampling rate : 48.0 kHz
Frame rate : 31.250 FPS (1536 SPF)
Bit depth : 16 bits
Compression mode : Lossy
Stream size : 647 MiB (14%)
Title : RiPPER~ L3GEND~ ORG BD DOLBY DIGITAL [email protected]~
Language : English
Service kind : Complete Main
Default : Yes
Forced : No

Text
ID : 3
Format : PGS
Muxing mode : zlib
Codec ID : S_HDMV/PGS
Codec ID/Info : Picture based subtitle format used on BDs/HD-DVDs
Duration : 2 h 20 min
Bit rate : 10.1 kb/s
Count of elements : 3654
Stream size : 10.1 MiB (0%)
Title : L3GEND~ Presentation Graphics Subtitles~
Language : English
Default : Yes
Forced : No

26459ab59c997f1aabae236460979e86.jpg
ade857e3cf6ac6dc9940ce6e50e5e8d5.jpg
59959d5f8b8dc1aeaea9efd44c447dfa.jpg
ab730be306ea0fcb6cb2de36d7c1b1c5.jpg
d03ee7acf15f996deba9a0c996cb40e3.jpg
ef056a34af23be7b8fb8608024848b95.jpg
b914213e7e11de7977e7df7fbeaf9c24.jpg

G-Drive | The File Locker

0 0 vote
Article Rating
Subscribe
Notify of
guest
0 Comments
Inline Feedbacks
View all comments