War.Of.The.Arrows.2011.1080p.BluRay.x264.AAC5.1-[YTS.MX] Hin-Eng 2.2Gb

Torrents by keyword "arrow" - KickassTorrents

General

Unique ID :

191865157478564774712087970739222801069 (0x9057E29CF14E5443A55930779FE0EAAD)

Format :

Matroska

Format version :

Version 4

File size :

2.36 GiB

Duration :

2 h 2 min

Overall bit rate :

2 764 kb/s

Movie name :

War.Of.The.Arrows.2011.1080p.BluRay.x264.AAC5.1 Hin-Eng

Encoded date :

UTC 2020-06-05 06:58:29

Writing application :

mkvmerge v47.0.0 (‘Black Flag’) 64-bit

Writing library :

libebml v1.3.10 + libmatroska v1.5.2

Video

ID :

1

Format :

AVC

Format/Info :

Advanced Video Codec

Format profile :

[email protected]

Format settings :

CABAC / 4 Ref Frames

Format settings, CABAC :

Yes

Format settings, Reference frames :

4 frames

Codec ID :

V_MPEG4/ISO/AVC

Duration :

2 h 2 min

Bit rate :

2 250 kb/s

Width :

1 920 pixels

Height :

816 pixels

Display aspect ratio :

2.35:1

Frame rate mode :

Constant

Frame rate :

23.976 (24000/1001) FPS

Color space :

YUV

Chroma subsampling :

4:2:0

Bit depth :

8 bits

Scan type :

Progressive

Bits/(Pixel*Frame) :

0.060

Stream size :

1.92 GiB (81%)

Writing library :

x264 core 158

Encoding settings :

cabac=1 / ref=4 / deblock=1:-1:-1 / analyse=0x3:0x133 / me=umh / subme=9 / psy=1 / psy_rd=1.00:0.15 / mixed_ref=1 / me_range=24 / chroma_me=1 / trellis=2 / 8x8dct=1 / cqm=0 / deadzone=21,11 / fast_pskip=0 / chroma_qp_offset=-3 / threads=18 / lookahead_threads=1 / sliced_threads=0 / nr=0 / decimate=1 / interlaced=0 / bluray_compat=0 / constrained_intra=0 / bframes=3 / b_pyramid=2 / b_adapt=2 / b_bias=0 / direct=3 / weightb=1 / open_gop=0 / weightp=2 / keyint=250 / keyint_min=23 / scenecut=40 / intra_refresh=0 / rc_lookahead=60 / rc=2pass / mbtree=1 / bitrate=2250 / ratetol=1.0 / qcomp=0.60 / qpmin=0 / qpmax=69 / qpstep=4 / cplxblur=20.0 / qblur=0.5 / vbv_maxrate=31250 / vbv_bufsize=31250 / nal_hrd=none / filler=0 / ip_ratio=1.40 / aq=1:1.00

Default :

Yes

Forced :

No

Audio #1

ID :

2

Format :

AAC LC

Format/Info :

Advanced Audio Codec Low Complexity

Codec ID :

A_AAC-2

Duration :

2 h 2 min

Bit rate :

384 kb/s

Channel(s) :

6 channels

Channel layout :

C L R Ls Rs LFE

Sampling rate :

48.0 kHz

Frame rate :

46.875 FPS (1024 SPF)

Compression mode :

Lossy

Delay relative to video :

-43 ms

Stream size :

336 MiB (14%)

Default :

No

Forced :

No

Audio #2

ID :

3

Format :

AC-3

Format/Info :

Audio Coding 3

Commercial name :

Dolby Digital

Codec ID :

A_AC3

Duration :

2 h 2 min

Bit rate mode :

Constant

Bit rate :

128 kb/s

Channel(s) :

2 channels

Channel layout :

L R

Sampling rate :

48.0 kHz

Frame rate :

31.250 FPS (1536 SPF)

Compression mode :

Lossy

Delay relative to video :

1 s 957 ms

Stream size :

112 MiB (5%)

Title :

Track 2 Hindi

Language :

Hindi

Service kind :

Complete Main

Default :

Yes

Forced :

No

Text

ID :

4

Format :

UTF-8

Codec ID :

S_TEXT/UTF8

Codec ID/Info :

UTF-8 Plain Text

Duration :

1 h 57 min

Bit rate :

19 b/s

Count of elements :

646

Stream size :

17.0 KiB (0%)

Default :

Yes

Forced :

No


vlcsnap-2020-06-05-00h30m18s213vlcsnap-2020-06-05-00h30m30s442vlcsnap-2020-06-05-00h31m03s791vlcsnap-2020-06-05-00h31m20s905vlcsnap-2020-06-05-00h31m31s264vlcsnap-2020-06-05-00h31m35s815
Gdrive Single Link+Download
https://bit.ly/2MxWyLC

Zupload.me(use vpn download with idm)
https://bit.ly/2zVAybb

0 0 vote
Article Rating
Subscribe
Notify of
guest
0 Comments
Inline Feedbacks
View all comments