WAR (2019) (MUSIC VIDEOS ALBUM) Telugu 1080p WebHD AVC DDP 5.1 By-DusIcTv

xxxxxxxxxxxxxxxxxxxxxxxxxxxxxxxxxxxxxxxxxxxxxxxxxxxxxxxxxxxxxxxxxxxxxxxxxxxxxxxxxxxxxxxxxxxxxxxxxxx
WAR (2019) (MUSIC VIDEOS ALBUM) Telugu 1080p WebHD AVC DDP 5.1 By-DusIcTv
xxxxxxxxxxxxxxxxxxxxxxxxxxxxxxxxxxxxxxxxxxxxxxxxxxxxxxxxxxxxxxxxxxxxxxxxxxxxxxxxxxxxxxxxxxxxxxxxxxx

Media info
General
Format : Matroska
Format version : Version 4
File size : 959 MB
Overall bit rate : 10.5 Mb/s
Encoded date : UTC 2019-11-27 20:15:12
Writing application : mkvmerge v39.0.0 (‘In The Waiting Line’) 64-bit
Writing library : libebml v1.3.9 + libmatroska v1.5.2

Video
ID : 1
Format : AVC
Format/Info : Advanced Video Codec
Format profile : [email protected]
Format settings : CABAC / 4 Ref Frames
Format settings, CABAC : Yes
Format settings, Reference frames : 4 frames
Codec ID : V_MPEG4/ISO/AVC
rate mode : Constant
Bit rate : 10 000 kb/s
Width : 1 920 pixels
Height : 816 pixels
Display aspect ratio : 2.35:1
Frame rate mode : Constant
Frame rate : 24.000 FPS
Color space : YUV
Chroma subsampling : 4:2:0
Bit depth : 8 bits
Scan type : Progressive
Bits/(Pixel*Frame) : 0.266
Stream size : 120 MiB (94%)
Title : By-DusIcTv
Default : Yes
Forced : No
Color range : Limited
Color primaries : BT.709
Transfer characteristics : BT.709
Matrix coefficients : BT.709

Audio
ID : 2
Format : E-AC-3
Format/Info : Enhanced AC-3
Commercial name : Dolby Digital Plus
Codec ID : A_EAC3
Bit rate mode : Constant
Bit rate : 640 kb/s
Channel(s) : 6 channels
Channel layout : L R C LFE Ls Rs
Sampling rate : 48.0 kHz
Frame rate : 31.250 FPS (1536 SPF)
Compression mode : Lossy
Stream size : 7.78 MiB (6%)
Title : By-DusIcTv
Language : Hindi
Service kind : Complete Main
Default : Yes
Forced : No

Text
ID : 3
Format : UTF-8
Codec ID : S_TEXT/UTF8
Codec ID/Info : UTF-8 Plain Text
Duration : 650 ms
Bit rate : 36 b/s
Count of elements : 1
Stream size : 3.00 Bytes (0%)
Title : By-DusIcTv
Language : English
Default : No
Forced : No

 G- Drive Download 

01-Khalid’s Theme [By-DusIcTv].mkv

02-Kabir’s Theme (Instrumental) [By-DusIcTv].mkv

03-Jai Jai Shivshankar [By-DusIcTv].mkv

04-Gunde Lo Thootlu Pade [By-DusIcTv].mkv

05-Ainvayi Ainvayi Lut Gaya [By-DusIcTv].mkv

06-End Roll [By-DusIcTv].mkv

The File Locker Download 

01-Khalid’s Theme [By-DusIcTv].mkv – 130.5 MB

02-Kabir’s Theme (Instrumental) [By-DusIcTv].mkv – 106.4 MB

03-Jai Jai Shivshankar [By-DusIcTv].mkv – 302.0 MB

04-Gunde Lo Thootlu Pade [By-DusIcTv].mkv – 260.6 MB

05-Ainvayi Ainvayi Lut Gaya [By-DusIcTv].mkv – 31.5 MB

06-End Roll [By-DusIcTv].mkv – 58.6 MB

 

 

0 0 vote
Article Rating
Subscribe
Notify of
guest
0 Comments
Inline Feedbacks
View all comments