Wanted (2009) (MUSIC VIDEO ALBUM) 1080p BluRay Rip x264 DTS-HDMA 5.1 ESuBS By-DusIcTv

Wanted (2009) (MUSIC VIDEO ALBUM) 1080p BluRay Rip x264 DTS-HDMA 5.1 ESuBS By-DusIcTv

Thanks To Special 26

xxxxxxxxxxxxxxxxxxxxxxxxxxxxxxxxxxxxxxxxxxxxxxxxxxxxxxxxxxxxxxxxxxxxxxxxxxxxxxxxxxxxxxxxxxxxxxxxxxx
Wanted (2009) (MUSIC VIDEO ALBUM) 1080p BluRay Rip x264 DTS-HDMA 5.1 ESuBS By-DusIcTv
xxxxxxxxxxxxxxxxxxxxxxxxxxxxxxxxxxxxxxxxxxxxxxxxxxxxxxxxxxxxxxxxxxxxxxxxxxxxxxxxxxxxxxxxxxxxxxxxxxx

:details:

Format : Matroska
Format version : Version 4
File size : 2.58 GB
Overall bit rate mode : Variable
Overall bit rate : 17.4 Mb/s
Writing application : mkvmerge v35.0.0 (‘All The Love In The World’) 64-bit
Writing library : libebml v1.3.9 + libmatroska v1.5.2

Video
ID : 1
Format : AVC
Format/Info : Advanced Video Codec
Format profile : [email protected]
Format settings : CABAC / 5 Ref Frames
Format settings, CABAC : Yes
Format settings, Reference frames : 5 frames
Codec ID : V_MPEG4/ISO/AVC
Bit rate : 15.1 Mb/s
Width : 1 920 pixels
Height : 816 pixels
Display aspect ratio : 2.35:1
Frame rate mode : Constant
Frame rate : 24.000 FPS
Color space : YUV
Chroma subsampling : 4:2:0
Bit depth : 8 bits
Scan type : Progressive
Bits/(Pixel*Frame) : 0.402
Stream size : 516 MiB (87%)
Title : DusIcTv
Language : English
Default : Yes
Forced : No
Color range : Limited
Color primaries : BT.709
Transfer characteristics : BT.709
Matrix coefficients : BT.709

Audio
ID : 2
Format : DTS XLL
Format/Info : Digital Theater Systems
Commercial name : DTS-HD Master Audio
Codec ID : A_DTS
Bit rate mode : Variable
Bit rate : 2 318 kb/s
Channel(s) : 6 channels
Channel layout : C L R Ls Rs LFE
Sampling rate : 48.0 kHz
Frame rate : 93.750 FPS (512 SPF)
Bit depth : 16 bits
Compression mode : Lossless
Delay relative to video : 6 ms
Stream size : 79.1 MiB (13%)
Title : DusIcTv
Language : Hindi
Default : Yes
Forced : No

Text
ID : 3
Format : PGS
Muxing mode : zlib
Codec ID : S_HDMV/PGS
Codec ID/Info : Picture based subtitle format used on BDs/HD-DVDs
Bit rate : 21.3 kb/s
Count of elements : 130
Stream size : 659 KiB (0%)
Language : English
Default : No
Forced : No

:screenshots:









:download2:
01-Jalwa [By-DusIcTv].mkv

https://thefileslocker.com/s4n1d5lvchc0.html

02-Love Me Love Me [By-DusIcTv].mkv

https://thefileslocker.com/splt5bajylcw.html

03-Dil Leke [By-DusIcTv].mkv

https://thefileslocker.com/6xbnuob2uhwj.html

04-Le Le Mazaa Le [By-DusIcTv].mkv

https://thefileslocker.com/0rskj9t16sp6.html

05-Tose Pyaar Karte Hai [By-DusIcTv].mkv

https://thefileslocker.com/ltc6shacafqp.html

https://thefileslocker.com/opm065xcfrcv.html
https://uptobox.com/6s4m4ee0ndbk
https://desiupload.to/f/ysxhdr-sig0c6mngbia0

0 0 vote
Article Rating
Subscribe
Notify of
guest
0 Comments
Inline Feedbacks
View all comments