Wanted (2008) 1080p BDRip Dual Audio Org DD {Hindi 2.0+Eng.5.1} -~{[email protected]}

Format : Matroska
Format version : Version 4
File size : 3.40 GiB
Duration : 1 h 45 min
Overall bit rate mode : Variable
Overall bit rate : 4 622 kb/s
Movie name : .-~{[email protected]}~-.
Encoded date : UTC 2017-01-14 09:23:41
Writing application : mkvmerge v9.7.1 (‘Pandemonium’) 64bit
Writing library : libebml v1.3.4 + libmatroska v1.4.5

Video
ID : 1
Format : AVC
Format/Info : Advanced Video Codec
Format profile : [email protected]
Format settings : CABAC / 5 Ref Frames
Format settings, CABAC : Yes
Format settings, ReFrames : 5 frames
Codec ID : V_MPEG4/ISO/AVC
Duration : 1 h 45 min
Bit rate mode : Variable
Bit rate : 3 789 kb/s
Maximum bit rate : 62.5 Mb/s
Width : 1 920 pixels
Height : 816 pixels
Display aspect ratio : 2.35:1
Frame rate mode : Constant
Frame rate : 25.000 FPS
Original frame rate : 23.976 (24000/1001) FPS
Color space : YUV
Chroma subsampling : 4:2:0
Bit depth : 8 bits
Scan type : Progressive
Bits/(Pixel*Frame) : 0.097
Stream size : 2.90 GiB (85%)
Title : Wanted.(2008).1080p.BDRip.Dual.Audio.Org.DD.{Hindi.2.0+Eng.5.1}.-~

Audio #1
ID : 2
Format : AC-3
Format/Info : Audio Coding 3
Commercial name : Dolby Digital
Codec ID : A_AC3
Duration : 1 h 45 min
Bit rate mode : Constant
Bit rate : 448 kb/s
Channel(s) : 6 channels
Channel layout : L R C LFE Ls Rs
Sampling rate : 48.0 kHz
Frame rate : 31.250 FPS (1536 SPF)
Bit depth : 16 bits
Compression mode : Lossy
Stream size : 338 MiB (10%)
Title : RiPPER~L3GEND~Org Dolby DIgital [email protected]~
Language : English
Service kind : Complete Main
Default : No
Forced : No

Audio #2
ID : 3
Format : AC-3
Format/Info : Audio Coding 3
Commercial name : Dolby Digital
Codec ID : A_AC3
Duration : 1 h 45 min
Bit rate mode : Constant
Bit rate : 224 kb/s
Channel(s) : 2 channels
Channel layout : L R
Sampling rate : 48.0 kHz
Frame rate : 31.250 FPS (1536 SPF)
Bit depth : 16 bits
Compression mode : Lossy
Stream size : 169 MiB (5%)
Title : RiPPER~L3GEND~Org Dolby DIgital [email protected]~
Language : Hindi
Service kind : Complete Main
Default : Yes
Forced : No

Text
ID : 4
Format : PGS
Muxing mode : zlib
Codec ID : S_HDMV/PGS
Codec ID/Info : Picture based subtitle format used on BDs/HD-DVDs
Duration : 1 h 37 min
Bit rate : 8 430 b/s
Count of elements : 1986
Stream size : 5.85 MiB (0%)
Title : ~L3GEND~
Language : English
Default : Yes
Forced : No

d8f93902638401bb1071eef800d1bc1e.jpg
a6261a8209102274165240c89e317605.jpg
e471e62224cbf8cc107fe3afd44d5b11.jpg
cfbc95020f9b35c39051aae8e71bb6ae.jpg
fd5de0c2a0fccf49c9d6ff69855135b3.jpg
98a34c040765a86ffc3ac916320f44b2.jpg
c32822c6e4bb772290aaa6007ae6147f.jpg

G-Drive | The File Locker 

0 0 vote
Article Rating
Subscribe
Notify of
guest
0 Comments
Inline Feedbacks
View all comments