Wake Up Sid (2009) HEVC x265 10-bit 1080p | 6 GB | DB9 |


Media Info:

Format : Matroska
Format version : Version 2
File size : 6.02 GiB
Duration : 2 h 12 min
Overall bit rate : 6 505 kb/s
Movie name : Wake Up Sid (2009) 1080p NF WEB-DL DDP5.1 MSubs ~ Invictus
Encoded date : UTC 2020-02-07 08:47:20
Writing application : DVDFab 11.0.6.5
Writing library : libebml v1.3.4 + libmatroska v1.4.5

Video
ID : 1
Format : HEVC
Format/Info : High Efficiency Video Coding
Format profile : Main [email protected]@Main
Codec ID : V_MPEGH/ISO/HEVC
Duration : 2 h 12 min
Bit rate : 5 863 kb/s
Width : 1 920 pixels
Height : 820 pixels
Display aspect ratio : 2.35:1
Frame rate mode : Constant
Frame rate : 25.000 FPS
Color space : YUV
Chroma subsampling : 4:2:0
Bit depth : 10 bits
Bits/(Pixel*Frame) : 0.149
Stream size : 5.42 GiB (90%)
Default : Yes
Forced : No
Color range : Limited
Color primaries : BT.709
Transfer characteristics : BT.709
Matrix coefficients : BT.709

Audio
ID : 2
Format : E-AC-3
Format/Info : Enhanced AC-3
Commercial name : Dolby Digital Plus
Codec ID : A_EAC3
Duration : 2 h 12 min
Bit rate mode : Constant
Bit rate : 640 kb/s
Channel(s) : 6 channels
Channel layout : L R C LFE Ls Rs
Sampling rate : 48.0 kHz
Frame rate : 31.250 FPS (1536 SPF)
Compression mode : Lossy
Stream size : 606 MiB (10%)
Language : Hindi
Service kind : Complete Main
Default : Yes
Forced : No


Screenshots:

 : https://drive.klop.me/file/8285104447

0 0 vote
Article Rating
Subscribe
Notify of
guest
0 Comments
Inline Feedbacks
View all comments