Vivah (2006) BluRay 1080p DTS-HDMA 5.1 AVC REMUX – FraMeSToR | G- Drive | 34 GB |

Format : Matroska
Format version : Version 4
File size : 34.0 GiB
Duration : 2 h 46 min
Overall bit rate mode : Variable
Overall bit rate : 29.3 Mb/s
Movie name : Vivah (2006)
Encoded date : UTC 2018-08-31 07:42:58
Writing application : mkvmerge v25.0.0 (‘Prog Noir’) 64-bit
Writing library : libebml v1.3.6 + libmatroska v1.4.9

Video
ID : 1
Format : AVC
Format/Info : Advanced Video Codec
Format profile : [email protected]
Format settings : CABAC / 4 Ref Frames
Format settings, CABAC : Yes
Format settings, ReFrames : 4 frames
Format settings, GOP : M=3, N=6
Codec ID : V_MPEG4/ISO/AVC
Duration : 2 h 46 min
Bit rate mode : Variable
Bit rate : 27.0 Mb/s
Maximum bit rate : 37.0 Mb/s
Width : 1 920 pixels
Height : 1 080 pixels
Display aspect ratio : 16:9
Frame rate mode : Constant
Frame rate : 24.000 FPS
Standard : NTSC
Color space : YUV
Chroma subsampling : 4:2:0
Bit depth : 8 bits
Scan type : Progressive
Bits/(Pixel*Frame) : 0.543
Stream size : 31.3 GiB (92%)
Default : Yes
Forced : No
Color range : Limited
Color primaries : BT.709
Transfer characteristics : BT.709
Matrix coefficients : BT.709

Audio
ID : 2
Format : DTS XLL
Format/Info : Digital Theater Systems
Commercial name : DTS-HD Master Audio
Codec ID : A_DTS
Duration : 2 h 46 min
Bit rate mode : Variable
Bit rate : 2 309 kb/s
Channel(s) : 6 channels
Channel layout : C L R Ls Rs LFE
Sampling rate : 48.0 kHz
Frame rate : 93.750 FPS (512 SPF)
Bit depth : 24 bits
Compression mode : Lossless
Stream size : 2.68 GiB (8%)
Title : DTS-HD MA 5.1
Language : Hindi
Default : Yes
Forced : No

Text
ID : 3
Format : PGS
Codec ID : S_HDMV/PGS
Codec ID/Info : Picture based subtitle format used on BDs/HD-DVDs
Duration : 2 h 44 min
Bit rate : 22.0 kb/s
Count of elements : 3454
Stream size : 25.9 MiB (0%)
Title : English
Language : English
Default : Yes
Forced : No

Menu
00:00:00.000 : en:Certificate / Company
00:01:05.311 : en:Beginning
00:04:07.667 : en:Chhota Sa Saajan by Suresh Wadkar and Aparnaa Bhaagwa
00:06:03.833 : en:Bhagat at Krishnakant’s Home
00:11:48.208 : en:Raadhey Krishn Ki Jyoti by Ravindra Jain and Shreya Ghoshal
00:18:06.083 : en:Prem’s Entry
00:26:16.750 : en:Do Anjaane Ajnabee by Udit Narayan and Shreya Ghoshal
00:31:23.250 : en:Prem Meets Poonam
00:36:43.458 : en:Prem’s Engagement
00:43:50.917 : en:O Jiji by Shreya Ghoshal and Pamela Jain
00:48:16.708 : en:Prem Reaches to Som Sarovar
00:59:19.750 : en:Milan Abhi Aadha Adhura Hai by Udit Narayan and Shreya Ghoshal
01:13:46.583 : en:Mujhe Haq Hai by Udit Narayan and Shreya Ghoshal
01:40:58.208 : en:Hamari Shaadi Mein by Babul Supriyo and Shreya Ghoshal
01:46:09.125 : en:Prem Returns from Foreign Tour
02:00:59.250 : en:Poonam’s Marriage
02:02:04.292 : en:Jai Gauri Maa by Pamela Jain
02:05:40.292 : en:Poonam’s Accident
02:23:31.167 : en:Climax
02:36:27.333 : en:Tere Dware Pe Aai Barat by Ravindra Jain and Sudesh Bhosale / End (Credits)

G- Drive Full Movie 34 GB 

G- Drive parts Download 4.5 GB 

Vivah (2006) BluRay 1080p DTS-HDMA 5.1 AVC REMUX – FraMeSToR.part8.rar – 3.3 GB

Vivah (2006) BluRay 1080p DTS-HDMA 5.1 AVC REMUX – FraMeSToR.part7.rar – 4.4 GB

Vivah (2006) BluRay 1080p DTS-HDMA 5.1 AVC REMUX – FraMeSToR.part6.rar – 4.4 GB

Vivah (2006) BluRay 1080p DTS-HDMA 5.1 AVC REMUX – FraMeSToR.part5.rar – 4.4 GB

Vivah (2006) BluRay 1080p DTS-HDMA 5.1 AVC REMUX – FraMeSToR.part4.rar – 4.4 GB

Vivah (2006) BluRay 1080p DTS-HDMA 5.1 AVC REMUX – FraMeSToR.part3.rar – 4.4 GB

Vivah (2006) BluRay 1080p DTS-HDMA 5.1 AVC REMUX – FraMeSToR.part2.rar – 4.4 GB

Vivah (2006) BluRay 1080p DTS-HDMA 5.1 AVC REMUX – FraMeSToR.part1.rar – 4.4 GB

0 0 vote
Article Rating
Subscribe
Notify of
guest
1 Comment
Oldest
Newest Most Voted
Inline Feedbacks
View all comments
ghostrider
ghostrider
7 months ago

please fix the link G- Drive Full Movie 34 GB