Villu (2009) (MUSIC VIDEO ALBUM) Tamil 1080p Blu-Ray BD REMUX LPCM 5.1 By-DusIcTv

General
Format : Matroska
Format version : Version 2
File size : 7.27 GB
Overall bit rate mode : Variable
Overall bit rate : 37.0 Mb/s
Encoded date : UTC 2016-10-08 08:46:31
Writing application : mkvmerge v3.3.0 (‘Language’) built on Mar 24 2010 14:59:24
Writing library : libebml v0.8.0 + libmatroska v0.9.0

Video
ID : 1
Format : AVC
Format/Info : Advanced Video Codec
Format profile : [email protected]
Format settings : CABAC / 4 Ref Frames
Format settings, CABAC : Yes
Format settings, Reference frames : 4 frames
Codec ID : V_MPEG4/ISO/AVC
Bit rate mode : Variable
Bit rate : 29.4 Mb/s
Maximum bit rate : 35.0 Mb/s
Width : 1 920 pixels
Height : 1 080 pixels
Display aspect ratio : 16:9
Frame rate mode : Constant
Frame rate : 24.000 FPS
Color space : YUV
Chroma subsampling : 4:2:0
Bit depth : 8 bits
Scan type : Progressive
Bits/(Pixel*Frame) : 0.590
Stream size : 1.04 GiB (79%)
Title : MPEG-4 AVC – 30440 Kbps – 24 fps
Language : Tamil
Default : Yes
Forced : No
Color range : Limited
Color primaries : BT.709
Transfer characteristics : BT.709
Matrix coefficients : BT.709

Audio
ID : 2
Format : PCM
Format settings : Little / Signed
Codec ID : A_PCM/INT/LIT
Bit rate mode : Constant
Bit rate : 6 912 kb/s
Channel(s) : 6 channels
Sampling rate : 48.0 kHz
Bit depth : 24 bits
Delay relative to video : 21 ms
Stream size : 250 MiB (19%)
Title : LPCM 5.1 @ 6912 Kbps – Original
Language : Tamil
Default : Yes
Forced : No

Text
ID : 3
Format : VobSub
Muxing mode : zlib
Codec ID : S_VOBSUB
Codec ID/Info : Picture based subtitle format used on DVDs
Language : English
Default : No
Forced : No

01-Hey Rama Rama [By-DusIcTv].mkv

02-Vaada Maappilley [By-DusIcTv].mkv

03-Daddy Mummy [By-DusIcTv].mkv

04-Nee Kobapattaal [By-DusIcTv].mkv

05-Jalsa Jalsa [By-DusIcTv].mkv

06-Dheemthanakka Thillana [By-DusIcTv].mkv

0 0 vote
Article Rating
Subscribe
Notify of
guest
6 Comments
Oldest
Newest Most Voted
Inline Feedbacks
View all comments
smith
smith
1 year ago

pls add fileslocker link

Simon
Simon
1 year ago

Bro…please upload ‘ Puli ‘ (2015) tamil movie songs in maximum quality..

Legion
Legion
1 year ago

link is not working bro

Elangovan Govan
Elangovan Govan
1 year ago

Not working

Dondeepak
Dondeepak
Reply to  SaturnWeb
1 year ago

Thanks bro koncham sekiram