Venom.2018.1080p.BrRip.x265 Hin-Eng 800Mb

Venom [DVD] (English audio. English subtitles): Amazon.co.uk: Tom ...

Format : Matroska
Format version : Version 4
File size : 834 MiB
Duration : 1 h 52 min
Overall bit rate : 1 040 kb/s
Writing application : mkvmerge v46.0.0 (‘No Deeper Escape’) 64-bit
Writing library : libebml v1.3.10 + libmatroska v1.5.2 / Lavf58.22.100
Video
ID : 1
Format : HEVC
Format/Info : High Efficiency Video Coding
Format profile : [email protected]@Main
Codec ID : V_MPEGH/ISO/HEVC
Duration : 1 h 52 min
Bit rate : 856 kb/s
Width : 1 920 pixels
Height : 800 pixels
Display aspect ratio : 2.40:1
Frame rate mode : Constant
Frame rate : 23.976 (24000/1001) FPS
Color space : YUV
Chroma subsampling : 4:2:0
Bit depth : 8 bits
Bits/(Pixel*Frame) : 0.023
Stream size : 687 MiB (82%)
Writing library : Lavc58.40.100 libx265
Language : English
Default : Yes
Forced : No
Color range : Limited
Audio #1
ID : 2
Format : AAC LC SBR PS
Format/Info : Advanced Audio Codec Low Complexity with Spectral Band Replication and Parametric Stereo
Commercial name : HE-AACv2
Format settings : NBC
Codec ID : A_AAC-29
Duration : 1 h 52 min
Bit rate : 53.4 kb/s
Channel(s) : 1 channel
Channel(s)_Original : 2 channels
ChannelLayout_Original : C
Sampling rate : 48.0 kHz
Frame rate : 23.438 FPS (2048 SPF)
Compression mode : Lossy
Delay relative to video : -148 ms
Stream size : 42.8 MiB (5%)
Writing library : Lavc58.40.100 libfdk_aac
Language : English
Default : Yes
Forced : No
Audio #2
ID : 4
Format : AAC LC SBR
Format/Info : Advanced Audio Codec Low Complexity with Spectral Band Replication
Commercial name : HE-AAC
Format settings : NBC
Codec ID : A_AAC-5
Duration : 1 h 52 min
Bit rate : 128 kb/s
Channel(s) : 6 channels
Channel layout : C L R Ls Rs LFE
Sampling rate : 48.0 kHz
Frame rate : 23.438 FPS (2048 SPF)
Compression mode : Lossy
Delay relative to video : -148 ms
Stream size : 103 MiB (12%)
Title : www.hollywoodmovieshindiaudiotracks.in
Language : Hindi
Default : No
Forced : No
Text
ID : 3
Format : UTF-8
Codec ID : S_TEXT/UTF8
Codec ID/Info : UTF-8 Plain Text
Duration : 1 h 34 min
Bit rate : 63 b/s
Count of elements : 1399
Stream size : 44.0 KiB (0%)
Language : English
Default : Yes
Forced : No


vlcsnap-2020-05-07-21h56m55s343vlcsnap-2020-05-07-21h57m01s259vlcsnap-2020-05-07-21h57m06s169vlcsnap-2020-05-07-21h57m19s100vlcsnap-2020-05-07-21h57m25s804vlcsnap-2020-05-07-21h57m36s879
gdrive Single link+Download
https://bit.ly/3bcN2rd

0 0 vote
Article Rating
Subscribe
Notify of
guest
0 Comments
Inline Feedbacks
View all comments