Velayudham (2011) (MUSIC VIDEO ALBUM) Tamil 1080p Blu-Ray BD REMUX LPCM 5.1 By-DusIcTv

xxxxxxxxxxxxxxxxxxxxxxxxxxxxxxxxxxxxxxxxxxxxxxxxxxxxxxxxxxxxxxxxxxxxxxxxxxxxxxxxxxxxxxxxxxxxxxxxxxx
Velayudham (2011) (MUSIC VIDEO ALBUM) Tamil 1080p Blu-Ray BD REMUX LPCM 5.1 By-DusIcTv
xxxxxxxxxxxxxxxxxxxxxxxxxxxxxxxxxxxxxxxxxxxxxxxxxxxxxxxxxxxxxxxxxxxxxxxxxxxxxxxxxxxxxxxxxxxxxxxxxxx

Media info
General
Format : Matroska
Format version : Version 2
File size : 5.10 GB
Overall bit rate mode : Variable
Overall bit rate : 33.5 Mb/s
Encoded date : UTC 2014-02-24 12:30:32
Writing application : mkvmerge v3.3.0 (‘Language’) built on Mar 24 2010 14:59:24
Writing library : libebml v0.8.0 + libmatroska v0.9.0

Video
ID : 1
Format : AVC
Format/Info : Advanced Video Codec
Format profile : [email protected]
Format settings : CABAC / 3 Ref Frames
Format settings, CABAC : Yes
Format settings, Reference frames : 3 frames
Codec ID : V_MPEG4/ISO/AVC
Bit rate mode : Variable
Bit rate : 28.2 Mb/s
Maximum bit rate : 35.0 Mb/s
Width : 1 920 pixels
Height : 1 080 pixels
Display aspect ratio : 16:9
Frame rate mode : Constant
Frame rate : 23.976 (24000/1001) FPS
Standard : NTSC
Color space : YUV
Chroma subsampling : 4:2:0
Bit depth : 8 bits
Scan type : Progressive
Bits/(Pixel*Frame) : 0.568
Stream size : 658 MiB (84%)
Title : MPEG-4 AVC – 28465 Kbps – 23.976 fps
Language : Tamil
Default : Yes
Forced : No
Color range : Limited
Color primaries : BT.709
Transfer characteristics : BT.709
Matrix coefficients : BT.709

Audio
ID : 2
Format : PCM
Format settings : Little / Signed
Codec ID : A_PCM/INT/LIT
Bit rate mode : Constant
Bit rate : 4 608 kb/s
Channel(s) : 6 channels
Sampling rate : 48.0 kHz
Bit depth : 16 bits
Stream size : 107 MiB (14%)
Title : LPCM 5.1 @ 4608 Kbps – Original
Language : Tamil
Default : Yes
Forced : No

Text
ID : 3
Format : VobSub
Muxing mode : zlib
Codec ID : S_VOBSUB
Codec ID/Info : Picture based subtitle format used on DVDs
Language : English
Default : No
Forced : No

01-Sonna Puriyadhu[By-DusIcTv].mkv

02-Chillax [By-DusIcTv].mkv

03-Mayam Seidhayo [By-DusIcTv].mkv

04-Molachu Moonu [By-DusIcTv].mkv

05-Rathathin Rathame [By-DusIcTv].mkv

0 0 vote
Article Rating
Subscribe
Notify of
guest
5 Comments
Oldest
Newest Most Voted
Inline Feedbacks
View all comments
babestv
babestv
1 year ago

file not found

guy
guy
9 months ago

please reupload

quentin tarantino
quentin tarantino
9 months ago

please re-upload files….