Veer (2010) (MUSIC VIDEO ALBUM) Untouched – BD50 DTS-HDMA 5.1 ESuBS By-DusIcTv

xxxxxxxxxxxxxxxxxxxxxxxxxxxxxxxxxxxxxxxxxxxxxxxxxxxxxxxxxxxxxxx
Veer (2010) (MUSIC VIDEO ALBUM) Untouched – BD50 DTS-HDMA 5.1 ESuBS By-DusIcTv
xxxxxxxxxxxxxxxxxxxxxxxxxxxxxxxxxxxxxxxxxxxxxxxxxxxxxxxxxxxxxxx

Media info
General
ID : 0 (0x0)
Format : BDAV
Format : M2ts
Format/Info : Blu-ray Video
File size : 5.80 GB
Overall bit rate mode : Variable
Overall bit rate : 36.8 Mb/s
Maximum Overall bit rate : 48.0 Mb/s

Video
ID : 4113 (0x1011)
Menu ID : 1 (0x1)
Format : VC-1
Format profile : [email protected]
Codec ID : 234
Width : 1 920 pixels
Height : 1 080 pixels
Display aspect ratio : 16:9
Frame rate : 23.976 (24000/1001) FPS
Color space : YUV
Chroma subsampling : 4:2:0
Bit depth : 8 bits
Scan type : Progressive
Compression mode : Lossy

Audio #1
ID : 4352 (0x1100)
Menu ID : 1 (0x1)
Format : DTS XLL
Format/Info : Digital Theater Systems
Commercial name : DTS-HD Master Audio
Muxing mode : Stream extension
Codec ID : 134
Bit rate mode : Variable
Channel(s) : 6 channels
Channel layout : C L R Ls Rs LFE
Sampling rate : 48.0 kHz
Frame rate : 93.750 FPS (512 SPF)
Bit depth : 16 bits
Compression mode : Lossless

Audio #2
ID : 4353 (0x1101)
Menu ID : 1 (0x1)
Format : PCM
Format settings : Big / Signed
Muxing mode : Blu-ray
Codec ID : 128
Bit rate mode : Constant
Bit rate : 4 608 kb/s
Channel(s) : 6 channels
Channel layout : L R C Ls Rs LFE
Sampling rate : 48.0 kHz
Bit depth : 16 bits
Stream size : 206 MiB (12%)

Audio #3
ID : 4354 (0x1102)
Menu ID : 1 (0x1)
Format : AC-3
Format/Info : Audio Coding 3
Commercial name : Dolby Digital
Codec ID : 129
Bit rate mode : Constant
Bit rate : 192 kb/s
Channel(s) : 2 channels
Channel layout : L R
Sampling rate : 48.0 kHz
Frame rate : 31.250 FPS (1536 SPF)
Bit depth : 16 bits
Compression mode : Lossy
Stream size : 8.58 MiB (1%)
Service kind : Complete Main

Text
ID : 4608 (0x1200)
Menu ID : 1 (0x1)
Format : PGS
Codec ID : 144

G- Drive Download 


01-Kanha Thumari 1 [By-DusIcTv].m2ts – 95.4 MB

02-Kanha Thumari [By-DusIcTv].m2ts – 312.6 MB

03-Taali [By-DusIcTv].m2ts – 1.6 GB

04-Meherbaniyan [By-DusIcTv].m2ts – 1.1 GB

05-Surili Akhiyon Wale 1 [By-DusIcTv].m2ts – 405.7 MB

06-Surili Akhiyon Wale 2 [By-DusIcTv].m2ts – 1.2 GB

07-Salaam Aaya [By-DusIcTv].m2ts – 1.1 GB

 

0 0 vote
Article Rating
Subscribe
Notify of
guest
2 Comments
Oldest
Newest Most Voted
Inline Feedbacks
View all comments
waquas
waquas
1 year ago

surili ankhiyon wale link is not working