VEER (2010) Hindi 1080p BluRay x264 HDMA DTS 5.1 {Music Video} ESuBS By-DusIcTv

VEER.(2010).Hindi.1080p.BluRay.x264.HDMA.DTS.5.1.{Music.Video}.ESuBS.By-DusIcTv

:details:

Format                                   : Matroska
Format version                           : Version 4
File size                                : 2.04 GB
Overall bit rate mode                    : Variable
Overall bit rate                         : 16.0 Mb/s
Writing application : mkvmerge v26.0.0 (‘In The Game’) 64-bit
Writing library : libebml v1.3.6 + libmatroska v1.4.9

Video
ID                                       : 1
Format                                   : AVC
Format/Info                              : Advanced Video Codec
Format profile                           : [email protected]
Format settings                          : CABAC / 5 Ref Frames
Format settings, CABAC                   : Yes
Format settings, Reference frames        : 5 frames
Codec ID                                 : V_MPEG4/ISO/AVC
Bit rate                                 : 13.0 Mb/s
Width                                    : 1 920 pixels
Height                                   : 816 pixels
Display aspect ratio                     : 2.35:1
Frame rate mode                          : Constant
Frame rate                               : 23.976 (24000/1001) FPS
Color space                              : YUV
Chroma subsampling                       : 4:2:0
Bit depth                                : 8 bits
Scan type                                : Progressive
Bits/(Pixel*Frame)                       : 0.347
Stream size                              : 564 MiB (81%)
Language                                 : English
Default                                  : Yes
Forced                                   : No
Color range                              : Limited
Color primaries                          : BT.709
Transfer characteristics                 : BT.709
Matrix coefficients                      : BT.709

Audio
ID                                       : 2
Format                                   : DTS XLL
Format/Info                              : Digital Theater Systems
Commercial name                          : DTS-HD Master Audio
Codec ID                                 : A_DTS
Bit rate mode                            : Variable
Bit rate                                 : 2 967 kb/s
Channel(s)                               : 6 channels
Channel layout                           : C L R Ls Rs LFE
Sampling rate                            : 48.0 kHz
Frame rate                               : 93.750 FPS (512 SPF)
Bit depth                                : 16 bits
Compression mode                         : Lossless
Delay relative to video                  : 4 ms
Stream size                              : 128 MiB (19%)
Language                                 : English
Default                                  : Yes
Forced                                   : No

Text
ID                                       : 3
Format                                   : PGS
Muxing mode                              : zlib
Codec ID                                 : S_HDMV/PGS
Codec ID/Info      : Picture based subtitle format used on BDs/HD-DVDs
Bit rate                                 : 32.7 kb/s
Count of elements                        : 102
Stream size                              : 1.35 MiB (0%)
Language                                 : English
Default                                  : Yes
Forced                                   : No

:screenshots:








:download2:
01-Taali [By-DusIcTv].mkv   693.07 MB

https://thefileslocker.com/qqk6f9r5rlri.html

02-Surili Akhiyon Wale [By-DusIcTv].mkv   510.02 MB

https://thefileslocker.com/bjfcer1dsljb.html

03-Meherbaniyan [By-DusIcTv].mkv   442.94 MB

https://thefileslocker.com/7tvzanj38y5c.html

04-Salaam Aaya [By-DusIcTv].mkv   452.57 MB

https://thefileslocker.com/jyyggvdqry40.html

https://thefileslocker.com/zgdfztksscq4.html
https://desiupload.to/f/26rp6d-pl4aeev0tvyou

0 0 vote
Article Rating
Subscribe
Notify of
guest
0 Comments
Inline Feedbacks
View all comments