Valerian And The City Of A Thousand Planets (2017) 1080p BDRip Dual Audio Org BD {Hindi+Eng 6Ch} -~{[email protected]}

Format : Matroska
Format version : Version 4
File size : 4.87 GiB
Duration : 2 h 16 min
Overall bit rate mode : Variable
Overall bit rate : 5 093 kb/s
Movie name : .-~{[email protected]}~-.
Encoded date : UTC 2018-01-07 03:25:08
Writing application : mkvmerge v11.0.0 (‘Alive’) 64bit
Writing library : libebml v1.3.4 + libmatroska v1.4.5

Video
ID : 1
Format : AVC
Format/Info : Advanced Video Codec
Format profile : [email protected]
Format settings : CABAC / 5 Ref Frames
Format settings, CABAC : Yes
Format settings, ReFrames : 5 frames
Codec ID : V_MPEG4/ISO/AVC
Duration : 2 h 16 min
Bit rate mode : Variable
Bit rate : 3 789 kb/s
Maximum bit rate : 62.5 Mb/s
Width : 1 920 pixels
Height : 804 pixels
Display aspect ratio : 2.40:1
Frame rate mode : Constant
Frame rate : 24.000 FPS
Original frame rate : 23.976 (24000/1001) FPS
Color space : YUV
Chroma subsampling : 4:2:0
Bit depth : 8 bits
Scan type : Progressive
Bits/(Pixel*Frame) : 0.102
Stream size : 3.63 GiB (74%)

Language : Hindi
Default : Yes
Forced : No

Audio #1
ID : 2
Format : AC-3
Format/Info : Audio Coding 3
Commercial name : Dolby Digital
Codec ID : A_AC3
Duration : 2 h 16 min
Bit rate mode : Constant
Bit rate : 640 kb/s
Channel(s) : 6 channels
Channel layout : L R C LFE Ls Rs
Sampling rate : 48.0 kHz
Frame rate : 31.250 FPS (1536 SPF)
Bit depth : 16 bits
Compression mode : Lossy
Delay relative to video : 21 s 300 ms
Stream size : 625 MiB (13%)
Title : RiPPER~ L3GEND~ ORG BLURAY DOLBY DIGITAL [email protected]~
Language : Hindi
Service kind : Complete Main
Default : Yes
Forced : No

Audio #2
ID : 3
Format : AC-3
Format/Info : Audio Coding 3
Commercial name : Dolby Digital
Codec ID : A_AC3
Duration : 2 h 16 min
Bit rate mode : Constant
Bit rate : 640 kb/s
Channel(s) : 6 channels
Channel layout : L R C LFE Ls Rs
Sampling rate : 48.0 kHz
Frame rate : 31.250 FPS (1536 SPF)
Bit depth : 16 bits
Compression mode : Lossy
Stream size : 627 MiB (13%)
Title : RiPPER~ L3GEND~ ORG BLURAY DOLBY DIGITAL [email protected]~
Language : English
Service kind : Complete Main
Default : No
Forced : No

Text
ID : 4
Format : PGS
Muxing mode : zlib
Codec ID : S_HDMV/PGS
Codec ID/Info : Picture based subtitle format used on BDs/HD-DVDs
Duration : 2 h 13 min
Bit rate : 21.5 kb/s
Count of elements : 3827
Stream size : 20.5 MiB (0%)
Title : L3GEND~ Presentation Graphics Subtitles~
Language : English
Default : Yes
Forced : No

 

b8e19d82753a720376755f5f3728b9e8.jpg
bfa660d54339fa8e98aac0dfd3964f44.jpg
6e77706c5f670361eceabdbe39805310.jpg
bf9292b3b38aeb9571e95e07039eae99.jpg
325907b8f3c4b77e4eee8e78e210c503.jpg
575a63402305e110b14320e9bc193d04.jpg

G-Drive | The File Locker

0 0 vote
Article Rating
Subscribe
Notify of
guest
0 Comments
Inline Feedbacks
View all comments