Valerian.and.the.City.of.a.Thousand.Planets.2017.1080p.10bit.BluRay.8CH.x265.HEVC-PSA Hin Eng 2.2Gb

poster8c23e946489b7ea8.jpg

Format : Matroska
Format version : Version 4
File size : 2.24 GiB
Duration : 2 h 17 min
Overall bit rate : 2 343 kb/s
Valerian.and.the.City.of.a.Thousand.Planets.2017.1080p.10bit.BluRay.8CH.x265.HEVC-PSA
Encoded date : UTC 2020-05-25 06:04:54
Writing application : mkvmerge v46.0.0 (‘No Deeper Escape’) 64-bit
Writing library : libebml v1.3.10 + libmatroska v1.5.2

Video
ID : 1
Format : HEVC
Format/Info : High Efficiency Video Coding
Format profile : Main [email protected]@Main
Codec ID : V_MPEGH/ISO/HEVC
Duration : 2 h 17 min
Bit rate : 1 921 kb/s
Width : 1 920 pixels
Height : 808 pixels
Display aspect ratio : 2.40:1
Frame rate mode : Constant
Frame rate : 23.976 (24000/1001) FPS
Color space : YUV
Chroma subsampling : 4:2:0
Bit depth : 10 bits
Bits/(Pixel*Frame) : 0.052
Stream size : 1.84 GiB (82%)
Default : Yes
Forced : No

Audio #1
ID : 2
Format : AAC LC SBR
Format/Info : Advanced Audio Codec Low Complexity with Spectral Band Replication
Commercial name : HE-AAC
Format settings : Explicit
Codec ID : A_AAC-2
Duration : 2 h 17 min
Bit rate : 288 kb/s
Channel(s) : 8 channels
Channel layout : C L R Ls Rs Lw Rw LFE
Sampling rate : 48.0 kHz
Frame rate : 23.438 FPS (2048 SPF)
Compression mode : Lossy
Delay relative to video : 31 ms
Stream size : 286 MiB (12%)
Default : Yes
Forced : No

Audio #2
ID : 4
Format : AC-3
Format/Info : Audio Coding 3
Commercial name : Dolby Digital
Codec ID : A_AC3
Duration : 2 h 17 min
Bit rate mode : Constant
Bit rate : 128 kb/s
Channel(s) : 6 channels
Channel layout : L R C LFE Ls Rs
Sampling rate : 44.1 kHz
Frame rate : 28.711 FPS (1536 SPF)
Compression mode : Lossy
Stream size : 125 MiB (5%)
Language : Hindi
Service kind : Complete Main
Default : No
Forced : No

Text
ID : 3
Format : UTF-8
Codec ID : S_TEXT/UTF8
Codec ID/Info : UTF-8 Plain Text
Duration : 2 h 13 min
Bit rate : 57 b/s
Count of elements : 1631
Stream size : 56.3 KiB (0%)
Language : English
Default : Yes
Forced : No

Menu
00:00:00.000 : en:Chapter 1
00:12:35.713 : en:Chapter 2
00:17:29.590 : en:Chapter 3
00:23:35.789 : en:Chapter 4
00:32:45.839 : en:Chapter 5
00:41:19.143 : en:Chapter 6
00:47:15.666 : en:Chapter 7
00:56:12.411 : en:Chapter 8
01:04:25.695 : en:Chapter 9
01:11:27.908 : en:Chapter 10
01:20:25.070 : en:Chapter 11
01:28:13.705 : en:Chapter 12
01:35:53.915 : en:Chapter 13
01:41:35.047 : en:Chapter 14
01:53:37.853 : en:Chapter 15
02:02:22.585 : en:Chapter 16


Gdrive Single Link+Download
http://bit.ly/2YY5JuY

0 0 vote
Article Rating
Subscribe
Notify of
guest
0 Comments
Inline Feedbacks
View all comments