Vaanam Kottattum (2020) [Tamil 4k UHD HEVC x265 – DD 5.1 – UNTOUCHED 10Gb

ca3095d789e57dadbde18821469cdb90.md.jpg

Complete name : Vaanam Kottattum (2020) [Tamil 4k UHD HEVC x265 – DD 5.1 – UNTOUCHED
Format profile : Base Media
Codec ID : isom (isom)
File size : 10.1 GiB
Duration : 1 h 58 min
Overall bit rate mode : Variable
Overall bit rate : 12.3 Mb/s
Encoded date : UTC 2020-03-05 04:37:23
Tagged date : UTC 2020-03-05 04:37:23

Video
ID : 1
Format : HEVC
Format/Info : High Efficiency Video Coding
Format profile : [email protected]@Main
Codec ID : hev1
Codec ID/Info : High Efficiency Video Coding
Duration : 1 h 58 min
Bit rate : 12.0 Mb/s
Width : 3 840 pixels
Height : 2 160 pixels
Display aspect ratio : 16:9
Frame rate mode : Constant
Frame rate : 23.976 (24000/1001) FPS
Standard : PAL
Color space : YUV
Chroma subsampling : 4:2:0
Bit depth : 8 bits
Bits/(Pixel*Frame) : 0.060
Stream size : 9.93 GiB (98%)
Encoded date : UTC 2020-03-05 04:37:23
Tagged date : UTC 2020-03-05 04:37:23
Color range : Limited
Color primaries : BT.709
Transfer characteristics : BT.709
Matrix coefficients : BT.709
Codec configuration box : hvcC

Audio
ID : 2
Format : AAC LC
Format/Info : Advanced Audio Codec Low Complexity
Codec ID : mp4a-40-2
Duration : 1 h 58 min
Bit rate mode : Variable
Bit rate : 256 kb/s
Maximum bit rate : 267 kb/s
Channel(s) : 6 channels
Channel layout : C L R Ls Rs LFE
Sampling rate : 48.0 kHz
Frame rate : 46.875 FPS (1024 SPF)
Compression mode : Lossy
Stream size : 217 MiB (2%)
Encoded date : UTC 2020-03-05 04:37:23
Tagged date : UTC 2020-03-05 04:37:23

36bde65e9006aa77c4919597acdc329c.md.png71e6d88d1ac5b24500324e1adc13b350.md.pngcceffbe0c350ac47242e1b2e9e1e5b43.md.pngc693a98315bd7dbfc7d97ff673ee13dc.md.png30713d3c0cdf686c964067d22a46e9a7.md.png

1080p [Gdrive+Download] ( 10.0Gb)

http://bit.ly/38vjR1p

0 0 vote
Article Rating
Subscribe
Notify of
guest
0 Comments
Inline Feedbacks
View all comments