URI The Surgical Strike (2019) 1080p BluRay x264 DTS 7.1CH 6.7GB

Uri: The Surgical Strike DVD Release Date

Format : Matroska
Format version : Version 4
File size : 6.75 GiB
Duration : 2 h 16 min
Overall bit rate mode : Variable
Overall bit rate : 7 071 kb/s
Writing application : mkvmerge v47.0.0 (‘Black Flag’) 64-bit
Writing library : libebml v1.3.10 + libmatroska v1.5.2

Video
ID : 1
Format : AVC
Format/Info : Advanced Video Codec
Format profile : [email protected]
Format settings : CABAC / 5 Ref Frames
Format settings, CABAC : Yes
Format settings, Reference frames : 5 frames
Codec ID : V_MPEG4/ISO/AVC
Duration : 2 h 16 min
Bit rate : 4 080 kb/s
Width : 1 920 pixels
Height : 804 pixels
Display aspect ratio : 2.40:1
Frame rate mode : Constant
Frame rate : 24.000 FPS
Color space : YUV
Chroma subsampling : 4:2:0
Bit depth : 8 bits
Scan type : Progressive
Bits/(Pixel*Frame) : 0.110
Stream size : 3.89 GiB (58%)
Title : MoviezAddiction.Live
Writing library : x264 core 155 r2893 b00bcaf
Encoding settings : cabac=1 / ref=5 / deblock=1:0:0 / analyse=0x1:0x131 / me=umh / subme=9 / psy=1 / psy_rd=1.00:0.00 / mixed_ref=1 / me_range=16 / chroma_me=1 / trellis=2 / 8x8dct=0 / cqm=0 / deadzone=21,11 / fast_pskip=1 / chroma_qp_offset=-2 / threads=25 / lookahead_threads=2 / sliced_threads=0 / nr=0 / decimate=1 / interlaced=0 / bluray_compat=0 / constrained_intra=0 / bframes=3 / b_pyramid=2 / b_adapt=2 / b_bias=0 / direct=3 / weightb=1 / open_gop=0 / weightp=2 / keyint=240 / keyint_min=24 / scenecut=40 / intra_refresh=0 / rc_lookahead=60 / rc=2pass / mbtree=1 / bitrate=4080 / ratetol=1.0 / qcomp=0.60 / qpmin=0 / qpmax=69 / qpstep=4 / cplxblur=20.0 / qblur=0.5 / vbv_maxrate=20000 / vbv_bufsize=25000 / nal_hrd=none / filler=0 / ip_ratio=1.40 / aq=1:1.00
Language : Hindi
Default : Yes
Forced : Yes
Color range : Limited
Color primaries : BT.709
Transfer characteristics : BT.709
Matrix coefficients : BT.709

Audio #1
ID : 2
Format : AC-3
Format/Info : Audio Coding 3
Commercial name : Dolby Digital
Codec ID : A_AC3
Duration : 2 h 16 min
Bit rate mode : Constant
Bit rate : 640 kb/s
Channel(s) : 6 channels
Channel layout : L R C LFE Ls Rs
Sampling rate : 48.0 kHz
Frame rate : 31.250 FPS (1536 SPF)
Compression mode : Lossy
Stream size : 625 MiB (9%)
Title : MoviezAddiction.Live
Language : Hindi
Service kind : Complete Main
Default : Yes
Forced : Yes

Audio #2
ID : 4
Format : DTS XLL
Format/Info : Digital Theater Systems
Commercial name : DTS-HD Master Audio
Codec ID : A_DTS
Duration : 2 h 16 min
Bit rate mode : Variable
Bit rate : 2 350 kb/s
Channel(s) : 7 channels
Channel layout : C L R Ls Rs LFE
Sampling rate : 48.0 kHz
Frame rate : 93.750 FPS (512 SPF)
Bit depth : 16 bits
Compression mode : Lossless
Delay relative to video : -5 ms
Stream size : 2.24 GiB (33%)
Title : Hindi / DTS-HD Master Audio / 5.1 / 48 kHz / 2350 kbps / 16-bit (DTS Core: 5.1 / 48 kHz / 1152 kbps / 16-bit / DN -4dB)
Language : Hindi
Default : No
Forced : No

Text
ID : 3
Format : UTF-8
Codec ID : S_TEXT/UTF8
Codec ID/Info : UTF-8 Plain Text
Duration : 2 h 9 min
Bit rate : 41 b/s
Count of elements : 967
Stream size : 39.2 KiB (0%)
Title : MoviezAddiction.Live
Language : English
Default : Yes
Forced : Yes


vlcsnap-2020-06-12-04h49m03s294vlcsnap-2020-06-12-04h49m12s464vlcsnap-2020-06-12-04h49m17s094vlcsnap-2020-06-12-04h49m20s823vlcsnap-2020-06-12-04h49m27s548vlcsnap-2020-06-12-04h49m32s220vlcsnap-2020-06-12-04h49m47s881
Gdrive Single Link+Download
https://bit.ly/3hf2w2a

PandaFiles Single Link+Download
https://bit.ly/2XSYIft

 

 

0 0 vote
Article Rating
Subscribe
Notify of
guest
0 Comments
Inline Feedbacks
View all comments