Ungli (2014) Hindi 1080p WebHD AVC DD 5.1 ESuBS By-DusIcTv | 8.80 GB |

General
Format : Matroska
Format version : Version 4
File size : 8.80 GiB
Duration : 1 h 53 min
Overall bit rate : 11.1 Mb/s
Movie name : Ungli (2014) Hindi 1080p WebHD AVC DD 5.1 ESuBS By-DusIcTv
Encoded date : UTC 2019-07-30 01:26:42
Writing application : mkvmerge v35.0.0 (‘All The Love In The World’) 64-bit
Writing library : libebml v1.3.9 + libmatroska v1.5.2

Video
ID : 1
Format : AVC
Format/Info : Advanced Video Codec
Format profile : [email protected]
Format settings : CABAC / 4 Ref Frames
Format settings, CABAC : Yes
Format settings, Reference frames : 4 frames
Codec ID : V_MPEG4/ISO/AVC
Duration : 1 h 53 min
Bit rate : 10.4 Mb/s
Width : 1 920 pixels
Height : 816 pixels
Display aspect ratio : 2.35:1
Frame rate mode : Constant
Frame rate : 24.000 FPS
Color space : YUV
Chroma subsampling : 4:2:0
Bit depth : 8 bits
Scan type : Progressive
Bits/(Pixel*Frame) : 0.278
Stream size : 8.29 GiB (94%)
Default : Yes
Forced : No
Color range : Limited
Color primaries : BT.709
Transfer characteristics : BT.709
Matrix coefficients : BT.709

Audio
ID : 2
Format : E-AC-3
Format/Info : Enhanced AC-3
Commercial name : Dolby Digital Plus
Codec ID : A_EAC3
Duration : 1 h 53 min
Bit rate mode : Constant
Bit rate : 640 kb/s
Channel(s) : 6 channels
Channel layout : L R C LFE Ls Rs
Sampling rate : 48.0 kHz
Frame rate : 31.250 FPS (1536 SPF)
Compression mode : Lossy
Stream size : 521 MiB (6%)
Service kind : Complete Main
Default : Yes
Forced : No

Google Drive Link :  https://drive.klop.me/file/98bdd00e18

 

0 0 vote
Article Rating
Subscribe
Notify of
guest
6 Comments
Oldest
Newest Most Voted
Inline Feedbacks
View all comments
amit giri
1 year ago

file not found show

Ali Akbar
Ali Akbar
1 year ago

File not found
Bhai post krny se pehly link check to kr liya kero

Ali Akbar
Ali Akbar
1 year ago
Reply to  Bhatt Dhairy

Na it wasn’t checked n approved
That was the link:
https://drive.klop.me/file/f61f496567

Now you have updated

Anyways
Thanks for updating the link
PEACE

prakash
prakash
1 year ago

apna sapna money money please in 1080p