Tumsa Nahin Dekha (2004) Hindi 1080p WebHD AVC DD 5.1 ESuBS By-DusIcTv | G- Drive | 7.9 GB |

General
Format : Matroska
Format version : Version 4
File size : 7.97 GiB
Duration : 2 h 7 min
Overall bit rate mode : Variable
Overall bit rate : 8 963 kb/s
Movie name : Tumsa Nahin Dekha (2004) Hindi 1080p WebHD AVC DD 5.1 ESuBS By-DusIcTv
Encoded date : UTC 2019-07-30 00:33:45
Writing application : mkvmerge v35.0.0 (‘All The Love In The World’) 64-bit
Writing library : libebml v1.3.9 + libmatroska v1.5.2

Video
ID : 1
Format : AVC
Format/Info : Advanced Video Codec
Format profile : [email protected]
Format settings : CABAC / 4 Ref Frames
Format settings, CABAC : Yes
Format settings, Reference frames : 4 frames
Codec ID : V_MPEG4/ISO/AVC
Duration : 2 h 7 min
Bit rate mode : Variable
Bit rate : 8 321 kb/s
Maximum bit rate : 15.0 Mb/s
Width : 1 920 pixels
Height : 816 pixels
Display aspect ratio : 2.35:1
Frame rate mode : Constant
Frame rate : 24.000 FPS
Color space : YUV
Chroma subsampling : 4:2:0
Bit depth : 8 bits
Scan type : Progressive
Bits/(Pixel*Frame) : 0.221
Stream size : 7.40 GiB (93%)
Default : Yes
Forced : No
Color range : Limited
Color primaries : BT.709
Transfer characteristics : BT.709
Matrix coefficients : BT.709

Audio
ID : 2
Format : E-AC-3
Format/Info : Enhanced AC-3
Commercial name : Dolby Digital Plus
Codec ID : A_EAC3
Duration : 2 h 7 min
Bit rate mode : Constant
Bit rate : 640 kb/s
Channel(s) : 6 channels
Channel layout : L R C LFE Ls Rs
Sampling rate : 48.0 kHz
Frame rate : 31.250 FPS (1536 SPF)
Compression mode : Lossy
Stream size : 583 MiB (7%)
Language : English
Service kind : Complete Main
Default : Yes
Forced : No

The File Locker Download 7.9 GB

https://thefileslocker.com/84sl5bsk5f0n.html

0 0 vote
Article Rating
Subscribe
Notify of
guest
3 Comments
Oldest
Newest Most Voted
Inline Feedbacks
View all comments
Raja rajgonda
Raja rajgonda
1 year ago

Please upload ragini mms 2011 hate story 3 and the train (emraan hashmi)

ABDUL BASIT
ABDUL BASIT
1 year ago

Please update links…