Tumi Sudhu Amar (2018) Bengali [MUSIC VIDEOS ALBUM] 1080p_x264 Web_HD [By-blendar] RDKNIGHT-SR™

:rinfo:

Album Name: Tumi Sudhu Amar
Year: 2018
Language: Bengali

Source : Blendar

Credit Goes To : Original Uploader / Encoder [Blendar] 

Re: Uploader / Encoded [RDKNIGHT-SR]™ 

:details:
General
Complete name             : 01.Mon Amar Kemon Kemon Kore 1080p_x264 –  [By-blendar] [RDKNIGHT-SR] .mkv
Format                    : Matroska
Format version            : Version 4
File size                 : 258 MiB
Duration                  : 3 min 33 s
Overall bit rate          : 10.2 Mb/s
Movie name                : [blendar]
Writing application       : Lavf58.20.100
Writing library           : Lavf58.20.100
ErrorDetectionType        : Per level 1

Video
ID                        : 1
Format                    : AVC
Format/Info               : Advanced Video Codec
Format profile            : High
Format level              : 4.1
Format settings, CABAC    : Yes
Format settings, Referenc : 4 frames
Codec ID                  : V_MPEG4/ISO/AVC
Duration                  : 3 min 33 s
Bit rate                  : 12.6 Mb/s
Width                     : 1 920 pixels
Height                    : 1 080 pixels
Display aspect ratio      : 16:9
Frame rate mode           : Constant
Frame rate                : 24.000 FPS
Color space               : YUV
Chroma subsampling        : 4:2:0
Bit depth                 : 8 bits
Scan type                 : Progressive
Bits/(Pixel*Frame)        : 0.253
Stream size               : 320 MiB
Title                     : [blendar]
Writing library           : x264 core 157

Default                   : Yes
Forced                    : No

Audio
ID                        : 2
Format                    : E-AC-3
Format/Info               : Enhanced AC-3
Commercial name           : Dolby Digital Plus
Format settings           : Big
Codec ID                  : A_EAC3
Duration                  : 3 min 32 s
Bit rate mode             : Constant
Bit rate                  : 224 kb/s
Channel(s)                : 2 channels
Channel layout            : L R
Sampling rate             : 48.0 kHz
Frame rate                : 31.250 FPS (1536 SPF)
Bit depth                 : 32 bits
Compression mode          : Lossy
Delay relative to video   : 25 ms
Stream size               : 5.68 MiB (2%)
Title                     : [blendar]
Default                   : Yes
Forced                    : No

:screenshots:






:download:

01.Mon Amar Kemon Kemon Kore 1080p_x264 – [By-blendar] [RDKNIGHT-SR] .mkv – 258.1 MB
https://new.gdtot.com/file/270636662

02.Moner Kotha Bol 1080p_x264 – [By-blendar] [RDKNIGHT-SR].mkv – 149.11 MB
https://new.gdtot.com/file/156351904

03.Shanai er Sur 1080p_x264 – [By-blendar] [RDKNIGHT-SR].mkv – 199.59 MB
https://new.gdtot.com/file/209286717

04.Tui Sudhu Amar (Title Track) 1080p_x264 – [By-blendar] [RDKNIGHT-SR].mkv – 177.92 MB
https://new.gdtot.com/file/186565577

05.End Roll 1080p_x264 – [By-blendar] [RDKNIGHT-SR].mkv – 101.84 MB
https://new.gdtot.com/file/106788275

– [RDKNIGH-SR] ™ –

0 0 vote
Article Rating
Subscribe
Notify of
guest
0 Comments
Inline Feedbacks
View all comments