Torque (2004) 1080p BluRay x264 {Dual Audio} {Hindi Org DD 2.0-English DTS 5.1} By~Hammer~| G-Drive | 3.95 GB |

General
Format : Matroska
Format version : Version 4
File size : 3.95 GiB
Duration : 1 h 24 min
Overall bit rate : 6 731 kb/s
Movie name : Torque (2004) 1080p BluRay x264 {Dual Audio} {Hindi Org DD 2.0-English DTS 5.1} By~Hammer~
Bit rate : 5 000 kb/s
Width : 1 920 pixels
Height : 800 pixels
Display aspect ratio : 2.40:1
Frame rate mode : Constant
Frame rate : 23.976 (24000/1001) FPS
Title : ~EncodeR~Hammer~
Language : English
Default : Yes
Forced : No

Audio #1
Format : AC-3
Format/Info : Audio Coding 3
Commercial name : Dolby Digital
Codec ID : A_AC3
Duration : 1 h 24 min
Bit rate mode : Constant
Bit rate : 224 kb/s
Channel(s) : 2 channels
Channel layout : L R
Sampling rate : 48.0 kHz
Frame rate : 31.250 FPS (1536 SPF)
Compression mode : Lossy
Stream size : 135 MiB (3%)
Title : Hindi Org VCD DD 2.0 224 kbps By~Hammer~
Language : Hindi
Default : Yes
Forced : Yes

Audio #2
Format : DTS
Format/Info : Digital Theater Systems
Codec ID : A_DTS
Duration : 1 h 24 min
Bit rate mode : Constant
Bit rate : 1 509 kb/s
Channel(s) : 6 channels
Channel layout : C L R Ls Rs LFE
Sampling rate : 48.0 kHz
Frame rate : 93.750 FPS (512 SPF)
Bit depth : 24 bits
Compression mode : Lossy
Stream size : 907 MiB (22%)
Title : English DTS 5.1 1509 kbps By~Hammer~
Language : English
Default : No
Forced : No

G- Drive Download 3.95 GB

The File Locker Download 3.95 GB

 

 

0 0 vote
Article Rating
Subscribe
Notify of
guest
1 Comment
Oldest
Newest Most Voted
Inline Feedbacks
View all comments
Mr.shafi
1 year ago

thanks