Tom Clancy’s Jack Ryan (2018) S02 1080p Untouched WEB-DL {Hindi-Eng DD 5.1} MSub By~Hammer~ | G- Drive |

General
Format                                   : Matroska
Format version                           : Version 4 / Version 2
File size                                : 2.54 GiB
Duration                                 : 58 min 15 s
Overall bit rate                         : 6 251 kb/s
Movie name                               : Tom Clancy’s Jack Ryan (2018) S02E01 1080p Untouched WEB-DL {Hindi-Eng DD 5.1} MSub By~Hammer~
Bit rate                                 : 4 969 kb/s
Width                                    : 1 920 pixels
Height                                   : 1 080 pixels
Display aspect ratio                     : 16:9
Frame rate mode                          : Constant
Frame rate                               : 23.976 (24000/1001) FPS
Title                                    : By~Hammer~
Language                                 : English
Default                                  : Yes
Forced                                   : No

Audio #1
Format                                   : AC-3
Format/Info                              : Audio Coding 3
Codec ID                                 : A_AC3
Duration                                 : 58 min 15 s
Bit rate mode                            : Constant
Bit rate                                 : 640 kb/s
Channel(s)                               : 6 channels
Channel positions                        : Front: L C R, Side: L R, LFE
Sampling rate                            : 48.0 kHz
Frame rate                               : 31.250 FPS (1536 SPF)
Bit depth                                : 16 bits
Compression mode                         : Lossy
Stream size                              : 267 MiB (10%)
Title                                    : Hindi Org DD 5.1 640 kbps
Language                                 : Hindi
Default                                  : Yes
Forced                                   : No

Audio #2
Format                                   : E-AC-3
Format/Info                              : Enhanced Audio Coding 3
Codec ID                                 : A_EAC3
Duration                                 : 58 min 15 s
Bit rate mode                            : Constant
Bit rate                                 : 640 kb/s
Channel(s)                               : 6 channels
Channel positions                        : Front: L C R, Side: L R, LFE
Sampling rate                            : 48.0 kHz
Frame rate                               : 187.500 FPS (256 SPF)
Compression mode                         : Lossy
Stream size                              : 267 MiB (10%)
Title                                    : English DD+5.1 640 kbps
Language                                 : English
Service kind                             : Complete Main
Default                                  : No
Forced                                   : No

Text #1
Format                                   : UTF-8
Codec ID                                 : S_TEXT/UTF8
Codec ID/Info                            : UTF-8 Plain Text
Duration                                 : 55 min 50 s
Bit rate                                 : 114 b/s
Count of elements                        : 722
Stream size                              : 46.8 KiB (0%)
Title                                    : Hindi SRT
Language                                 : Hindi
Default                                  : Yes
Forced                                   : No

Text #2
Format                                   : UTF-8
Codec ID                                 : S_TEXT/UTF8
Codec ID/Info                            : UTF-8 Plain Text
Duration                                 : 55 min 58 s
Bit rate                                 : 67 b/s
Count of elements                        : 951
Stream size                              : 27.5 KiB (0%)
Title                                    : Eng SRT
Language                                 : English
Default                                  : No
Forced                                   : No

G- Drive Download 

Tom Clancy_s Jack Ryan (2018) S02E01 1080p Untouched WEB-DL {Hindi-Eng DD 5.1} MSub By~Hammer~.mkv
Tom Clancy_s Jack Ryan (2018) S02E02 1080p Untouched WEB-DL {Hindi-Eng DD 5.1} MSub By~Hammer~.mkv
Tom Clancy_s Jack Ryan (2018) S02E03 1080p Untouched WEB-DL {Hindi-Eng DD 5.1} MSub By~Hammer~.mkv
Tom Clancy_s Jack Ryan (2018) S02E04 1080p Untouched WEB-DL {Hindi-Eng DD 5.1} MSub By~Hammer~.mkv
Tom Clancy_s Jack Ryan (2018) S02E05 1080p Untouched WEB-DL {Hindi-Eng DD 5.1} MSub By~Hammer~.mkv
Tom Clancy_s Jack Ryan (2018) S02E06 1080p Untouched WEB-DL {Hindi-Eng DD 5.1} MSub By~Hammer~.mkv
Tom Clancy_s Jack Ryan (2018) S02E07 1080p Untouched WEB-DL {Hindi-Eng DD 5.1} MSub By~Hammer~.mkv
Tom Clancy_s Jack Ryan (2018) S02E08 1080p Untouched WEB-DL {Hindi-Eng DD 5.1} MSub By~Hammer~.mkv

https://sharer.pw/file/VRoZvjkFfFR

 

The File Locker Download

Tom Clancy_s Jack Ryan (2018) S02E01 1080p Untouched WEB-DL {Hindi-Eng DD 5.1} MSub By~Hammer~.mkv – 2.5 GB

Tom Clancy_s Jack Ryan (2018) S02E02 1080p Untouched WEB-DL {Hindi-Eng DD 5.1} MSub By~Hammer~.mkv – 2.2 GB

Tom Clancy_s Jack Ryan (2018) S02E03 1080p Untouched WEB-DL {Hindi-Eng DD 5.1} MSub By~Hammer~.mkv – 2.1 GB

Tom Clancy_s Jack Ryan (2018) S02E04 1080p Untouched WEB-DL {Hindi-Eng DD 5.1} MSub By~Hammer~.mkv – 1.8 GB

Tom Clancy_s Jack Ryan (2018) S02E05 1080p Untouched WEB-DL {Hindi-Eng DD 5.1} MSub By~Hammer~.mkv – 1.7 GB

Tom Clancy_s Jack Ryan (2018) S02E06 1080p Untouched WEB-DL {Hindi-Eng DD 5.1} MSub By~Hammer~.mkv – 1.9 GB

Tom Clancy_s Jack Ryan (2018) S02E07 1080p Untouched WEB-DL {Hindi-Eng DD 5.1} MSub By~Hammer~.mkv – 1.7 GB

Tom Clancy_s Jack Ryan (2018) S02E08 1080p Untouched WEB-DL {Hindi-Eng DD 5.1} MSub By~Hammer~.mkv – 2.2 GB

0 0 vote
Article Rating
Subscribe
Notify of
guest
0 Comments
Inline Feedbacks
View all comments