Tom Clancy’s Jack Ryan (2018) S01 1080p Untouched WEB-DL {Hindi-Eng DD 5.1} MSub By~Hammer~ | G- Drive |

General
Format                                   : Matroska
Format version                           : Version 4
File size                                : 5.63 GiB
Duration                                 : 1 h 4 min
Overall bit rate mode                    : Variable
Overall bit rate                         : 12.4 Mb/s
Movie name                               : Tom Clancy’s Jack Ryan (2018) S01E01 1080p Untouched WEB-DL {Hindi-Eng DD 5.1} MSub By~Hammer~
Bit rate mode                            : Variable
Bit rate                                 : 11.1 Mb/s
Maximum bit rate                         : 15.0 Mb/s
Width                                    : 1 920 pixels
Height                                   : 1 080 pixels
Display aspect ratio                     : 16:9
Frame rate mode                          : Constant
Frame rate                               : 23.976 (24000/1001) FPS
Title                                    : By~Hammer~
Default                                  : Yes
Forced                                   : No

Audio #1
Format                                   : AC-3
Format/Info                              : Audio Coding 3
Commercial name                          : Dolby Digital
Codec ID                                 : A_AC3
Duration                                 : 1 h 4 min
Bit rate mode                            : Constant
Bit rate                                 : 640 kb/s
Channel(s)                               : 6 channels
Channel layout                           : L R C LFE Ls Rs
Sampling rate                            : 48.0 kHz
Frame rate                               : 31.250 FPS (1536 SPF)
Compression mode                         : Lossy
Stream size                              : 298 MiB (5%)
Title                                    : Hindi
Language                                 : Hindi
Default                                  : Yes
Forced                                   : No

Audio #2
Format                                   : E-AC-3
Format/Info                              : Enhanced AC-3
Commercial name                          : Dolby Digital Plus
Codec ID                                 : A_EAC3
Duration                                 : 1 h 4 min
Bit rate mode                            : Constant
Bit rate                                 : 640 kb/s
Channel(s)                               : 6 channels
Channel layout                           : L R C LFE Ls Rs
Sampling rate                            : 48.0 kHz
Frame rate                               : 31.250 FPS (1536 SPF)
Compression mode                         : Lossy
Stream size                              : 298 MiB (5%)
Title                                    : English
Language                                 : English
Default                                  : No
Forced                                   : No

Text #1
Format                                   : UTF-8
Codec ID                                 : S_TEXT/UTF8
Codec ID/Info                            : UTF-8 Plain Text
Duration                                 : 1 h 1 min
Bit rate                                 : 74 b/s
Count of elements                        : 530
Stream size                              : 33.5 KiB (0%)
Title                                    : Hindi SRT
Language                                 : Hindi
Default                                  : Yes
Forced                                   : No

Text #2
Format                                   : UTF-8
Codec ID                                 : S_TEXT/UTF8
Codec ID/Info                            : UTF-8 Plain Text
Duration                                 : 1 h 2 min
Bit rate                                 : 45 b/s
Count of elements                        : 820
Stream size                              : 21.0 KiB (0%)
Title                                    : Eng SRT
Language                                 : English
Default                                  : No
Forced                                   : No

G- Drive Download

Tom Clancy_s Jack Ryan (2018) S01E01 1080p Untouched WEB-DL {Hindi-Eng DD 5.1} MSub By~Hammer~.mkv
Tom Clancy_s Jack Ryan (2018) S01E02 1080p Untouched WEB-DL {Hindi-Eng DD 5.1} MSub By~Hammer~.mkv
Tom Clancy_s Jack Ryan (2018) S01E03 1080p Untouched WEB-DL {Hindi-Eng DD 5.1} MSub By~Hammer~.mkv
Tom Clancy_s Jack Ryan (2018) S01E04 1080p Untouched WEB-DL {Hindi-Eng DD 5.1} MSub By~Hammer~.mkv
Tom Clancy_s Jack Ryan (2018) S01E05 1080p Untouched WEB-DL {Hindi-Eng DD 5.1} MSub By~Hammer~.mkv
Tom Clancy_s Jack Ryan (2018) S01E06 1080p Untouched WEB-DL {Hindi-Eng DD 5.1} MSub By~Hammer~.mkv
Tom Clancy_s Jack Ryan (2018) S01E07 1080p Untouched WEB-DL {Hindi-Eng DD 5.1} MSub By~Hammer~.mkv
Tom Clancy_s Jack Ryan (2018) S01E08 1080p Untouched WEB-DL {Hindi-Eng DD 5.1} MSub By~Hammer~.mkv

https://sharer.pw/file/8cPCf61uuyW

 

The File locker Download

Tom Clancy_s Jack Ryan (2018) S01E01 1080p Untouched WEB-DL {Hindi-Eng DD 5.1} MSub By~Hammer~.mkv – 5.6 GB

Tom Clancy_s Jack Ryan (2018) S01E02 1080p Untouched WEB-DL {Hindi-Eng DD 5.1} MSub By~Hammer~.mkv – 3.4 GB

Tom Clancy_s Jack Ryan (2018) S01E03 1080p Untouched WEB-DL {Hindi-Eng DD 5.1} MSub By~Hammer~.mkv – 4.2 GB

Tom Clancy_s Jack Ryan (2018) S01E04 1080p Untouched WEB-DL {Hindi-Eng DD 5.1} MSub By~Hammer~.mkv – 3.1 GB

Tom Clancy_s Jack Ryan (2018) S01E05 1080p Untouched WEB-DL {Hindi-Eng DD 5.1} MSub By~Hammer~.mkv – 3.1 GB

Tom Clancy_s Jack Ryan (2018) S01E06 1080p Untouched WEB-DL {Hindi-Eng DD 5.1} MSub By~Hammer~.mkv – 4.7 GB

Tom Clancy_s Jack Ryan (2018) S01E07 1080p Untouched WEB-DL {Hindi-Eng DD 5.1} MSub By~Hammer~.mkv – 3.7 GB

Tom Clancy_s Jack Ryan (2018) S01E08 1080p Untouched WEB-DL {Hindi-Eng DD 5.1} MSub By~Hammer~.mkv – 3.4 GB

 

0 0 vote
Article Rating
Subscribe
Notify of
guest
2 Comments
Oldest
Newest Most Voted
Inline Feedbacks
View all comments
Katper
Katper
1 year ago

thank u so much….
please share other other series too in hindi dubbed in same awesome quality..

Mohit
Mohit
4 months ago

sharer.pw links of both seasons are not working… they are showing that the files are deleted…. please look at it…