Thor Ragnarok (2017) IMAX 1080p [Dual Audio] [Org.BD] {Hindi+Eng.6Ch} -~{[email protected]}

Format version : Version 4
File size : 5.29 GiB
Duration : 2 h 10 min
Overall bit rate mode : Variable
Overall bit rate : 5 799 kb/s
Movie name : .-~{[email protected]}~-.
Encoded date : UTC 2018-03-24 19:14:29
Writing application : mkvmerge v11.0.0 (‘Alive’) 64bit
Writing library : libebml v1.3.4 + libmatroska v1.4.5

Video
ID : 1
Format : AVC
Format/Info : Advanced Video Codec
Format profile : [email protected]
Format settings : CABAC / 4 Ref Frames
Format settings, CABAC : Yes
Format settings, ReFrames : 4 frames
Format settings, GOP : M=1, N=3
Codec ID : V_MPEG4/ISO/AVC
Duration : 2 h 10 min
Bit rate mode : Variable
Bit rate : 4 500 kb/s
Maximum bit rate : 62.5 Mb/s
Width : 1 920 pixels
Height : 1 080 pixels
Display aspect ratio : 16:9
Frame rate mode : Constant
Frame rate : 23.976 (24000/1001) FPS
Color space : YUV
Chroma subsampling : 4:2:0
Bit depth : 8 bits
Scan type : Progressive
Bits/(Pixel*Frame) : 0.091
Stream size : 4.10 GiB (78%)

Audio #1
ID : 2
Format : AC-3
Format/Info : Audio Coding 3
Commercial name : Dolby Digital
Codec ID : A_AC3
Duration : 2 h 10 min
Bit rate mode : Constant
Bit rate : 640 kb/s
Channel(s) : 6 channels
Channel layout : L R C LFE Ls Rs
Sampling rate : 48.0 kHz
Frame rate : 31.250 FPS (1536 SPF)
Bit depth : 16 bits
Compression mode : Lossy
Stream size : 597 MiB (11%)
Title : RiPPER~ L3GEND~ ORG BLURAY DOLBY DIGITAL [email protected]~
Language : Hindi
Service kind : Complete Main
Default : Yes
Forced : No

Audio #2
ID : 3
Format : AC-3
Format/Info : Audio Coding 3
Commercial name : Dolby Digital
Codec ID : A_AC3
Duration : 2 h 10 min
Bit rate mode : Constant
Bit rate : 640 kb/s
Channel(s) : 6 channels
Channel layout : L R C LFE Ls Rs
Sampling rate : 48.0 kHz
Frame rate : 31.250 FPS (1536 SPF)
Bit depth : 16 bits
Compression mode : Lossy
Stream size : 597 MiB (11%)
Title : RiPPER~ L3GEND~ ORG BLURAY DOLBY DIGITAL [email protected]~
Language : English
Service kind : Complete Main
Default : No
Forced : No

Text #1
ID : 4
Format : PGS
Muxing mode : zlib
Codec ID : S_HDMV/PGS
Codec ID/Info : Picture based subtitle format used on BDs/HD-DVDs
Duration : 1 h 0 min
Bit rate : 13.4 kb/s
Count of elements : 2089
Stream size : 5.80 MiB (0%)
Title : L3GEND ~Presentation Graphics Subtitles~
Language : English
Default : No
Forced : No

Text #2
ID : 5
Format : PGS
Muxing mode : zlib
Codec ID : S_HDMV/PGS
Codec ID/Info : Picture based subtitle format used on BDs/HD-DVDs
Duration : 1 h 7 min
Bit rate : 20.2 kb/s
Count of elements : 2388
Stream size : 9.73 MiB (0%)
Title : L3GEND ~Director’s Commentary Presentation Graphics Subtitles~
Language : English
Default : Yes
Forced : No

8e4e55250b0b4319edce85db49370b0a.jpg
4c69734a283dc7ea3002fc20a4c69035.jpg
89659ed8584c48ed34e312f82a6feb08.jpg
5525c962c8ff01a70832163a5a3643a9.jpg
def862682e43d63ce3740a63d1ede70f.jpg

G-Drive | The File Locker

0 0 vote
Article Rating
Subscribe
Notify of
guest
0 Comments
Inline Feedbacks
View all comments