The Vampire’s Assistant (2009) 1080p BDRip x264 {Dual Audio} {Hindi DD 5.1-Eng DTS 5.1} ESub By~Hammer~| G- Drive | 5.46 GB|

General
Format                                   : Matroska
Format version                           : Version 4
File size                                : 5.46 GiB
Duration                                 : 1 h 49 min
Overall bit rate                         : 7 168 kb/s
Movie name                               : The Vampire’s Assistant (2009) 1080p BDRip x264 {Dual Audio} {Hindi DD 5.1-Eng DTS 5.1} ESub By~Hammer~
Bit rate                                 : 5 000 kb/s
Width                                    : 1 920 pixels
Height                                   : 816 pixels
Display aspect ratio                     : 2.35:1
Frame rate mode                          : Constant
Frame rate                               : 23.976 (24000/1001) FPS
Title                                    : ~EncodeR~Hammer~
Language                                 : English
Default                                  : Yes
Forced                                   : No

Audio #1
Format                                   : AC-3
Format/Info                              : Audio Coding 3
Commercial name                          : Dolby Digital
Codec ID                                 : A_AC3
Duration                                 : 1 h 49 min
Bit rate mode                            : Constant
Bit rate                                 : 640 kb/s
Channel(s)                               : 6 channels
Channel layout                           : L R C LFE Ls Rs
Sampling rate                            : 48.0 kHz
Frame rate                               : 31.250 FPS (1536 SPF)
Compression mode                         : Lossy
Stream size                              : 499 MiB (9%)
Title                                    : Hindi Org DD 5.1 640 kbps By~Hammer~
Language                                 : Hindi
Default                                  : Yes
Forced                                   : No

Audio #2
Format                                   : DTS
Format/Info                              : Digital Theater Systems
Codec ID                                 : A_DTS
Duration                                 : 1 h 49 min
Bit rate mode                            : Constant
Bit rate                                 : 1 509 kb/s
Channel(s)                               : 6 channels
Channel layout                           : C L R Ls Rs LFE
Sampling rate                            : 48.0 kHz
Frame rate                               : 93.750 FPS (512 SPF)
Bit depth                                : 24 bits
Compression mode                         : Lossy
Stream size                              : 1.15 GiB (21%)
Title                                    : English DTS 5.1 1509 kbps By~Hammer~
Language                                 : English
Default                                  : No
Forced                                   : No

Text
Format                                   : PGS
Muxing mode                              : zlib
Codec ID                                 : S_HDMV/PGS
Codec ID/Info                            : Picture based subtitle format used on BDs/HD-DVDs
Duration                                 : 1 h 42 min
Bit rate                                 : 56.8 kb/s
Count of elements                        : 2726
Stream size                              : 41.6 MiB (1%)
Title                                    : English PGS
Language                                 : English
Default                                  : Yes
Forced                                   : No

 

 G- Drive Download

The File locker Download

0 0 vote
Article Rating
Subscribe
Notify of
guest
0 Comments
Inline Feedbacks
View all comments