The Snowman (2017) 1080p BluRay x264 Dual Audio [Hindi DD5.1 – English DD5.1] – MSUBS ~ Ranvijay | G- Drive | 4.20 GB|

The Snowman (2017) 1080p BluRay x264 Dual Audio [Hindi DD5.1 – English DD5.1] – MSUBS ~ Ranvijay

Thanks To Hammer For Hindi Audio

General
Format                  : Matroska
Format version              : Version 4 / Version 2
File size                : 4.20 GiB
Duration                 : 1 h 59 min
Overall bit rate             : 5 042 kb/s
Movie name                : The Snowman (2017) 1080p BluRay x264 Dual Audio [Hindi DD5.1 – English DD5.1] – MSUBS ~ Ranvijay

Video
ID                    : 1
Format                  : AVC
Format/Info               : Advanced Video Codec
Format profile              : [email protected]
Format settings             : CABAC / 4 Ref Frames
Format settings, CABAC          : Yes
Format settings, RefFrames        : 4 frames
Codec ID                 : V_MPEG4/ISO/AVC
Duration                 : 1 h 59 min
Bit rate                 : 4 000 kb/s
Width                  : 1 920 pixels
Height                  : 1 040 pixels
Display aspect ratio           : 1.85:1
Frame rate mode             : Constant
Frame rate                : 23.976 (24000/1001) FPS
Color space               : YUV
Chroma subsampling            : 4:2:0
Bit depth                : 8 bits
Scan type                : Progressive
Bits/(Pixel*Frame)            : 0.084
Stream size               : 3.33 GiB (79%)
Title                  : ~Ranvijay~

Audio #1
ID                    : 2
Format                  : AC-3
Format/Info               : Audio Coding 3
Codec ID                 : A_AC3
Duration                 : 1 h 59 min
Bit rate mode              : Constant
Bit rate                 : 640 kb/s
Channel(s)                : 6 channels
Channel positions            : Front: L C R, Side: L R, LFE
Sampling rate              : 48.0 kHz
Frame rate                : 31.250 FPS (1536 SPF)
Bit depth                : 16 bits
Compression mode             : Lossy
Delay relative to video         : 47 ms
Stream size               : 546 MiB (13%)
Title                  : ~Ranvijay~
Language                 : Hindi
Service kind               : Complete Main
Default                 : Yes
Forced                  : Yes

Audio #2
ID                    : 3
Format                  : AC-3
Format/Info               : Audio Coding 3
Codec ID                 : A_AC3
Duration                 : 1 h 59 min
Bit rate mode              : Constant
Bit rate                 : 384 kb/s
Channel(s)                : 6 channels
Channel positions            : Front: L C R, Side: L R, LFE
Sampling rate              : 48.0 kHz
Frame rate                : 31.250 FPS (1536 SPF)
Bit depth                : 16 bits
Compression mode             : Lossy
Stream size               : 328 MiB (8%)
Title                  : ~Ranvijay~
Language                 : English
Service kind               : Complete Main
Default                 : No
Forced                  : No

Text #1
ID                    : 4
Format                  : PGS
Muxing mode               : zlib
Codec ID                 : S_HDMV/PGS
Codec ID/Info              : Picture based subtitle format used on BDs/HD-DVDs
Duration                 : 1 h 53 min
Bit rate                 : 29.1 kb/s
Count of elements            : 2396
Stream size               : 23.6 MiB (1%)
Title                  : ~Ranvijay~
Language                 : English
Default                 : Yes
Forced                  : Yes

Text #2
ID                    : 5
Format                  : PGS
Muxing mode               : zlib
Codec ID                 : S_HDMV/PGS
Codec ID/Info              : Picture based subtitle format used on BDs/HD-DVDs
Duration                 : 1 h 53 min
Bit rate                 : 18.4 kb/s
Count of elements            : 2052
Stream size               : 14.9 MiB (0%)
Title                  : ~Ranvijay~
Language                 : Hindi
Default                 : No
Forced                  : No

Menu
00:00:00.000               : en:00:00:00.000
00:06:23.008               : en:00:06:23.008
00:13:43.072               : en:00:13:43.072
00:20:05.663               : en:00:20:05.663
00:24:21.377               : en:00:24:21.377
00:29:25.263               : en:00:29:25.263
00:33:09.321               : en:00:33:09.321
00:42:17.285               : en:00:42:17.285
00:50:44.124               : en:00:50:44.124
00:55:33.747               : en:00:55:33.747
01:02:19.903               : en:01:02:19.903
01:08:06.457               : en:01:08:06.457
01:12:24.215               : en:01:12:24.215
01:17:31.397               : en:01:17:31.397
01:23:55.489               : en:01:23:55.489
01:29:06.883               : en:01:29:06.883
01:35:45.323               : en:01:35:45.323
01:42:39.028               : en:01:42:39.028
01:50:33.752               : en:01:50:33.752
01:54:23.982               : en:01:54:23.982

G- Drive Download

The File Locker Download

 

0 0 vote
Article Rating
Subscribe
Notify of
guest
0 Comments
Inline Feedbacks
View all comments