The Sky Is Pink 2019 1080p Untouched Web Dl. NF AVC 5.1 [DrC] | 4.45 GB |

General

Format                                  : Matroska

Format version                          : Version 2

File size                                : 4.45 GiB

Duration                                : 2 h 23 min

Overall bit rate mode                    : Variable

Overall bit rate                        : 4 445 kb/s

Movie name                              : DrC

Video

ID                                      : 1

Format                                  : AVC

Format/Info                              : Advanced Video Codec

Format profile                          : [email protected]

Duration                                : 2 h 23 min

Bit rate mode                            : Variable

Bit rate                                : 3 830 kb/s

Maximum bit rate                        : 5 745 kb/s

Width                                    : 1 920 pixels

Height                                  : 1 080 pixels

Display aspect ratio                    : 16:9

Frame rate mode                          : Constant

Frame rate                              : 24.000 FPS

Color space                              : YUV

Chroma subsampling                      : 4:2:0

Bit depth                                : 8 bits

Scan type                                : Progressive

Bits/(Pixel*Frame)                      : 0.077

Stream size                              : 3.72 GiB (84%)

Title                                    : DrC

Default                                  : Yes

Forced                                  : No

Audio

ID                                      : 2

Format                                  : E-AC-3

Format/Info                              : Enhanced AC-3

Commercial name                          : Dolby Digital Plus

Muxing mode                              : Header stripping

Codec ID                                : A_EAC3

Duration                                : 2 h 23 min

Bit rate mode                            : Constant

Bit rate                                : 640 kb/s

Channel(s)                              : 6 channels

Channel layout                          : L R C LFE Ls Rs

Sampling rate                            : 48.0 kHz

Frame rate                              : 31.250 FPS (1536 SPF)

Compression mode                        : Lossy

Stream size                              : 656 MiB (14%)

Title                                    : DrC

Google Drive Link : https://drive.klop.me/file/fb9a722521

 

 

0 0 vote
Article Rating
Subscribe
Notify of
guest
0 Comments
Inline Feedbacks
View all comments