The Shape Of Water (2017) 1080p [Dual Audio] [Org.BD] {Hindi+Eng.6Ch} -~{[email protected]}

Format : Matroska
Format version : Version 4
File size : 4.05 GiB
Duration : 2 h 3 min
Overall bit rate mode : Variable
Overall bit rate : 4 702 kb/s
Movie name : .-~{[email protected]}~-.
Encoded date : UTC 2018-04-06 11:50:35
Writing application : mkvmerge v11.0.0 (‘Alive’) 64bit
Writing library : libebml v1.3.4 + libmatroska v1.4.5

Video
ID : 1
Format : AVC
Format/Info : Advanced Video Codec
Format profile : [email protected]
Format settings : CABAC / 4 Ref Frames
Format settings, CABAC : Yes
Format settings, ReFrames : 4 frames
Codec ID : V_MPEG4/ISO/AVC
Duration : 2 h 3 min
Bit rate mode : Variable
Bit rate : 3 789 kb/s
Maximum bit rate : 62.5 Mb/s
Width : 1 920 pixels
Height : 1 036 pixels
Display aspect ratio : 1.85:1
Frame rate mode : Constant
Frame rate : 23.976 (24000/1001) FPS
Color space : YUV
Chroma subsampling : 4:2:0
Bit depth : 8 bits
Scan type : Progressive
Bits/(Pixel*Frame) : 0.079
Stream size : 3.26 GiB (81%)
Title : The.Shape.Of.Water.(2017).1080p.[Dual.Audio].[Org.BD].{Hindi+Eng.6Ch}.-~{[email protected]}~-.

Default : Yes
Forced : No

Audio #1
ID : 2
Format : AC-3
Format/Info : Audio Coding 3
Commercial name : Dolby Digital
Codec ID : A_AC3
Duration : 2 h 3 min
Bit rate mode : Constant
Bit rate : 448 kb/s
Channel(s) : 6 channels
Channel layout : L R C LFE Ls Rs
Sampling rate : 48.0 kHz
Frame rate : 31.250 FPS (1536 SPF)
Bit depth : 16 bits
Compression mode : Lossy
Stream size : 395 MiB (10%)
Title : RiPPER~ L3GEND~ ORG BLURAY DOLBY DIGITAL [email protected]~
Language : Hindi
Service kind : Complete Main
Default : Yes
Forced : No

Audio #2
ID : 3
Format : AC-3
Format/Info : Audio Coding 3
Commercial name : Dolby Digital
Codec ID : A_AC3
Duration : 2 h 3 min
Bit rate mode : Constant
Bit rate : 448 kb/s
Channel(s) : 6 channels
Channel layout : L R C LFE Ls Rs
Sampling rate : 48.0 kHz
Frame rate : 31.250 FPS (1536 SPF)
Bit depth : 16 bits
Compression mode : Lossy
Stream size : 395 MiB (10%)
Title : RiPPER~ L3GEND~ ORG BLURAY DOLBY DIGITAL [email protected]~
Language : English
Service kind : Complete Main
Default : No
Forced : No

Text #1
ID : 4
Format : PGS
Muxing mode : zlib
Codec ID : S_HDMV/PGS
Codec ID/Info : Picture based subtitle format used on BDs/HD-DVDs
Duration : 1 h 47 min
Bit rate : 428 b/s
Count of elements : 338
Stream size : 337 KiB (0%)
Title : L3GEND~ Forced Presentation Graphics Subtitles ~
Language : English
Default : No
Forced : No

Text #2
ID : 5
Format : PGS
Muxing mode : zlib
Codec ID : S_HDMV/PGS
Codec ID/Info : Picture based subtitle format used on BDs/HD-DVDs
Duration : 2 h 2 min
Bit rate : 6 908 b/s
Count of elements : 3856
Stream size : 6.08 MiB (0%)
Title : L3GEND~ Presentation Graphics Subtitles ~
Language : English
Default : Yes
Forced : No

Text #3
ID : 6
Format : PGS
Muxing mode : zlib
Codec ID : S_HDMV/PGS
Codec ID/Info : Picture based subtitle format used on BDs/HD-DVDs
Duration : 2 h 1 min
Bit rate : 8 287 b/s
Count of elements : 2825
Stream size : 7.20 MiB (0%)
Title : L3GEND~ Presentation Graphics Subtitles ~
Language : Hindi
Default : No
Forced : No

1f0123bc9bd8803407c4a46d5baa10f9.jpg
722e4ba560db3ac7c316f4c0e22b2c68.jpg
650a7f9fa7580242f868385b532d01eb.jpg
25e88790c025fe1299a21732292563b3.jpg
91de0601d5dd98108e2951fdb3ad09a3.jpg
698e194b580c62fb82da01b8b6367995.jpg
2f2de8c6b3c1dab40a4d8f9ec13846ac.jpg

G-Drive | The File Locker

0 0 vote
Article Rating
Subscribe
Notify of
guest
0 Comments
Inline Feedbacks
View all comments