The Rundown (2003) 1080p BluRay x264 {Multi Audio} {Hindi-Tam-Tel-Eng DD 5.1} MSub By~Hammer~| G- Drive | 4.9 GB |

The Rundown (2003) 1080p BluRay x264 {Multi Audio} {Hindi-Tam-Tel-Eng DD 5.1} MSub By~Hammer~

General
Format                                   : Matroska
Format version                           : Version 4 / Version 2
File size                                : 4.97 GiB
Duration                                 : 1 h 44 min
Overall bit rate                         : 6 823 kb/s
Movie name                               : The Rundown (2003) 1080p BluRay x264 {Multi Audio} {Hindi-Tam-Tel-Eng DD 5.1} MSub By~Hammer~
Bit rate                                 : 5 000 kb/s
Width                                    : 1 920 pixels
Height                                   : 816 pixels
Display aspect ratio                     : 2.35:1
Frame rate mode                          : Constant
Frame rate                               : 23.976 (24000/1001) FPS
Title                                    : ~EncodeR~Hammer~
Language                                 : English
Default                                  : Yes
Forced                                   : No

Audio #1
Format                                   : AC-3
Format/Info                              : Audio Coding 3
Codec ID                                 : A_AC3
Duration                                 : 1 h 44 min
Bit rate mode                            : Constant
Bit rate                                 : 384 kb/s
Channel(s)                               : 6 channels
Channel positions                        : Front: L C R, Side: L R, LFE
Sampling rate                            : 48.0 kHz
Frame rate                               : 31.250 FPS (1536 SPF)
Bit depth                                : 16 bits
Compression mode                         : Lossy
Stream size                              : 286 MiB (6%)
Title                                    : Hindi Org DD 5.1 384 kbps By~Hammer~
Language                                 : Hindi
Default                                  : Yes
Forced                                   : No

Audio #2
Format                                   : AC-3
Format/Info                              : Audio Coding 3
Codec ID                                 : A_AC3
Duration                                 : 1 h 44 min
Bit rate mode                            : Constant
Bit rate                                 : 384 kb/s
Channel(s)                               : 6 channels
Channel positions                        : Front: L C R, Side: L R, LFE
Sampling rate                            : 48.0 kHz
Frame rate                               : 31.250 FPS (1536 SPF)
Bit depth                                : 16 bits
Compression mode                         : Lossy
Stream size                              : 286 MiB (6%)
Title                                    : Tamil Org DD 5.1 384 kbps By~Hammer~
Language                                 : Tamil
Default                                  : No
Forced                                   : No

Audio #3
Format                                   : AC-3
Format/Info                              : Audio Coding 3
Codec ID                                 : A_AC3
Duration                                 : 1 h 44 min
Bit rate mode                            : Constant
Bit rate                                 : 384 kb/s
Channel(s)                               : 6 channels
Channel positions                        : Front: L C R, Side: L R, LFE
Sampling rate                            : 48.0 kHz
Frame rate                               : 31.250 FPS (1536 SPF)
Bit depth                                : 16 bits
Compression mode                         : Lossy
Stream size                              : 286 MiB (6%)
Title                                    : Telugu Org DD 5.1 384 kbps By~Hammer~
Language                                 : Telugu
Default                                  : No
Forced                                   : No

Audio #4
Format                                   : AC-3
Format/Info                              : Audio Coding 3
Codec ID                                 : A_AC3
Duration                                 : 1 h 44 min
Bit rate mode                            : Constant
Bit rate                                 : 640 kb/s
Channel(s)                               : 6 channels
Channel positions                        : Front: L C R, Side: L R, LFE
Sampling rate                            : 48.0 kHz
Frame rate                               : 31.250 FPS (1536 SPF)
Bit depth                                : 16 bits
Compression mode                         : Lossy
Stream size                              : 477 MiB (9%)
Title                                    : English BD 5.1 640 kbps By~Hammer~
Language                                 : English
Default                                  : No
Forced                                   : No

Text #1
Format                                   : PGS
Muxing mode                              : zlib
Codec ID                                 : S_HDMV/PGS
Codec ID/Info                            : Picture based subtitle format used on BDs/HD-DVDs
Duration                                 : 1 h 36 min
Bit rate                                 : 13.2 kb/s
Count of elements                        : 2118
Stream size                              : 9.18 MiB (0%)
Title                                    : Hindi PGS
Language                                 : Hindi
Default                                  : Yes
Forced                                   : No

Text #2
Format                                   : PGS
Muxing mode                              : zlib
Codec ID                                 : S_HDMV/PGS
Codec ID/Info                            : Picture based subtitle format used on BDs/HD-DVDs
Duration                                 : 1 h 36 min
Bit rate                                 : 12.6 kb/s
Count of elements                        : 2108
Stream size                              : 8.75 MiB (0%)
Title                                    : English PGS
Language                                 : English
Default                                  : No
Forced                                   : No

G- Drive Download 4.9 GB

The Locker Downlload 4.9 GB

0 0 vote
Article Rating
Subscribe
Notify of
guest
0 Comments
Inline Feedbacks
View all comments