The-Other-Guys-2010-Extended-Hybrid-1080p-BluRay-DTS-x264 Hin-Eng 15.2Gb

3004 The Other Guys (2010) 720p BrRip (With images) | Comedy ...

Format : Matroska
Format version : Version 4
File size : 15.1 GiB
Duration : 1 h 56 min
Overall bit rate mode : Variable
Overall bit rate : 18.6 Mb/s
Writing library : libebml v1.3.10 + libmatroska v1.5.2

Video
ID : 1
Format : AVC
Format/Info : Advanced Video Codec
Format profile : [email protected]
Format settings : CABAC / 5 Ref Frames
Format settings, CABAC : Yes
Format settings, Reference frames : 5 frames
Codec ID : V_MPEG4/ISO/AVC
Duration : 1 h 56 min
Bit rate : 17.0 Mb/s
Width : 1 920 pixels
Height : 804 pixels
Display aspect ratio : 2.40:1
Frame rate mode : Constant
Frame rate : 23.976 (24000/1001) FPS
Color space : YUV
Chroma subsampling : 4:2:0
Bit depth : 8 bits
Scan type : Progressive
Bits/(Pixel*Frame) : 0.459
Stream size : 13.8 GiB (91%)
Title : The.Other.Guys.2010.Extended.Hybrid.1080p.BluRay.DTS.x264-DON
Writing library : x264 core 140 r2377 1ca7bb9
Encoding settings : cabac=1 / ref=5 / deblock=1:-3:-3 / analyse=0x3:0x133 / me=umh / subme=10 / psy=1 / psy_rd=1.00:0.05 / mixed_ref=1 / me_range=32 / chroma_me=1 / trellis=2 / 8x8dct=1 / cqm=0 / deadzone=6,6 / fast_pskip=0 / chroma_qp_offset=-3 / threads=9 / lookahead_threads=1 / sliced_threads=0 / nr=0 / decimate=0 / interlaced=0 / bluray_compat=0 / constrained_intra=0 / bframes=8 / b_pyramid=2 / b_adapt=2 / b_bias=0 / direct=3 / weightb=1 / open_gop=0 / weightp=2 / keyint=250 / keyint_min=23 / scenecut=40 / intra_refresh=0 / rc=2pass / mbtree=0 / bitrate=17000 / ratetol=1.0 / qcomp=0.70 / qpmin=0 / qpmax=40 / qpstep=4 / cplxblur=20.0 / qblur=0.5 / ip_ratio=1.30 / pb_ratio=1.20 / aq=1:0.80
Language : English
Default : Yes
Forced : No
Color range : Limited
Matrix coefficients : BT.709

Audio #1
ID : 2
Format : DTS
Format/Info : Digital Theater Systems
Codec ID : A_DTS
Duration : 1 h 56 min
Bit rate mode : Constant
Bit rate : 1 509 kb/s
Channel(s) : 6 channels
Channel layout : C L R Ls Rs LFE
Sampling rate : 48.0 kHz
Frame rate : 93.750 FPS (512 SPF)
Bit depth : 24 bits
Compression mode : Lossy
Stream size : 1.23 GiB (8%)
Language : English
Default : Yes
Forced : No

Audio #2
ID : 4
Format : MPEG Audio
Format version : Version 1
Format profile : Layer 3
Format settings : Joint stereo / MS Stereo
Codec ID : A_MPEG/L3
Codec ID/Hint : MP3
Duration : 1 h 56 min
Bit rate mode : Variable
Bit rate : 119 kb/s
Nominal bit rate : 128 kb/s
Channel(s) : 2 channels
Sampling rate : 48.0 kHz
Frame rate : 41.667 FPS (1152 SPF)
Compression mode : Lossy
Stream size : 99.3 MiB (1%)
Writing library : LAME3.99r
Encoding settings : -m j -V 4 -q 3 -lowpass 17 –abr 128
Language : Hindi
Default : No
Forced : No

Text
ID : 3
Format : UTF-8
Codec ID : S_TEXT/UTF8
Codec ID/Info : UTF-8 Plain Text
Duration : 1 h 55 min
Bit rate : 97 b/s
Count of elements : 1970
Stream size : 82.4 KiB (0%)
Language : English
Default : Yes
Forced : No


vlcsnap-2020-06-08-09h38m19s227vlcsnap-2020-06-08-09h38m24s544vlcsnap-2020-06-08-09h38m34s128vlcsnap-2020-06-08-09h38m40s733vlcsnap-2020-06-08-09h38m46s273vlcsnap-2020-06-08-09h38m51s012vlcsnap-2020-06-08-09h39m17s807
Gdrive Single Link+Download
https://bit.ly/2APGthQ

7-up.net Single Link+Download
https://bit.ly/3dL3z82

 

0 0 vote
Article Rating
Subscribe
Notify of
guest
0 Comments
Inline Feedbacks
View all comments