The Mummy (2017) 1080p BDRip Dual Audio Org BD {Hindi DTS+Eng.6Ch} -~{[email protected]}

Format : Matroska
Format version : Version 4
File size : 4.01 GiB
Duration : 1 h 50 min
Overall bit rate mode : Variable
Overall bit rate : 5 213 kb/s
Movie name : .-~{[email protected]}~-.
Encoded date : UTC 2017-10-05 09:48:20
Writing application : mkvmerge v9.5.0 (‘Quiet Fire’) 64bit
Writing library : libebml v1.3.4 + libmatroska v1.4.5

Video
ID : 1
Format : AVC
Format/Info : Advanced Video Codec
Format profile : [email protected]
Format settings : CABAC / 5 Ref Frames
Format settings, CABAC : Yes
Format settings, ReFrames : 5 frames
Codec ID : V_MPEG4/ISO/AVC
Duration : 1 h 50 min
Bit rate mode : Variable
Bit rate : 3 789 kb/s
Maximum bit rate : 62.5 Mb/s
Width : 1 920 pixels
Height : 800 pixels
Display aspect ratio : 2.40:1
Frame rate mode : Constant
Frame rate : 23.976 (24000/1001) FPS
Color space : YUV
Chroma subsampling : 4:2:0
Bit depth : 8 bits
Scan type : Progressive
Bits/(Pixel*Frame) : 0.103
Stream size : 2.91 GiB (73%)
Title : The.Mummy.(2017).1080p.BDRip.Dual.Audio.Org.BD.{Hindi.DTS+Eng.6Ch}.-~{[email protected]}~-.
Writing library : x264 core 130 r2273 b3065e6

Default : Yes
Forced : No

Audio #1
ID : 2
Format : AC-3
Format/Info : Audio Coding 3
Commercial name : Dolby Digital
Codec ID : A_AC3
Duration : 1 h 50 min
Bit rate mode : Constant
Bit rate : 640 kb/s
Channel(s) : 6 channels
Channel layout : L R C LFE Ls Rs
Sampling rate : 48.0 kHz
Frame rate : 31.250 FPS (1536 SPF)
Bit depth : 16 bits
Compression mode : Lossy
Stream size : 504 MiB (12%)
Title : RiPPER~ L3GEND~ ORG BD DOLBY DIGITAL [email protected]~
Language : English
Service kind : Complete Main
Default : No
Forced : No

Audio #2
ID : 3
Format : DTS
Format/Info : Digital Theater Systems
Codec ID : A_DTS
Duration : 1 h 50 min
Bit rate mode : Constant
Bit rate : 768 kb/s
Channel(s) : 6 channels
Channel layout : C L R Ls Rs LFE
Sampling rate : 48.0 kHz
Frame rate : 93.750 FPS (512 SPF)
Bit depth : 24 bits
Compression mode : Lossy
Stream size : 605 MiB (15%)
Title : RiPPER~ L3GEND~ ORG BD DIGITAL THEATRE SYSTEM [email protected]~
Language : Hindi
Default : Yes
Forced : No

Text #1
ID : 4
Format : PGS
Muxing mode : zlib
Codec ID : S_HDMV/PGS
Codec ID/Info : Picture based subtitle format used on BDs/HD-DVDs
Duration : 1 h 37 min
Bit rate : 11.3 kb/s
Count of elements : 2760
Stream size : 7.91 MiB (0%)
Title : L3GEND~ Presentation Graphics Subtitles~
Language : English
Default : Yes
Forced : No

Text #2
ID : 5
Format : PGS
Muxing mode : zlib
Codec ID : S_HDMV/PGS
Codec ID/Info : Picture based subtitle format used on BDs/HD-DVDs
Duration : 1 h 49 min
Bit rate : 6 926 b/s
Count of elements : 2160
Stream size : 5.41 MiB (0%)
Title : L3GEND~ Presentation Graphics Subtitles~
Language : Hindi
Default : No
Forced : No

f87d863c69eed9f0d7642b3c884a0cf0.jpg
2db18d7d1fad8782037fb2b110313a0a.jpg
d3916bd5314c4f813f5b509370b13d30.jpg
8d1fd03fac49c07d102de586d83466f9.jpg
004fc33a6a886f4569c42f76af0e8fde.jpg
cd6122dba721f29a72fd537255bc5f87.jpg

G-Drive  | The File Lockers

0 0 vote
Article Rating
Subscribe
Notify of
guest
0 Comments
Inline Feedbacks
View all comments