The Mortal Instruments City of Bones (2013) 1080p WEB-Rip x264 {Hindi DD+2.0 224 kbps} Exclusive By~Hammer~

The Mortal Instruments City of Bones (2013) 1080p WEB-Rip x264 {Hindi DD+2.0 224 kbps} Exclusive By~Hammer~

General
Format                                   : Matroska
Format version                           : Version 4
File size                                : 4.33 GiB
Duration                                 : 2 h 4 min
Overall bit rate                         : 4 965 kb/s
Movie name                               : The Mortal Instruments City of Bones (2013) 1080p WEB-Rip x264 {Hindi DD+2.0 224 kbps} Exclusive By~Hammer~
Bit rate                                 : 4 500 kb/s
Width                                    : 1 920 pixels
Height                                   : 1 080 pixels
Display aspect ratio                     : 16:9
Frame rate mode                          : Constant
Frame rate                               : 25.000 FPS
Title                                    : ~EncodeR~Hammer~
Language                                 : English
Default                                  : Yes
Forced                                   : No

Audio #1
Format                                   : AC-3
Format/Info                              : Audio Coding 3
Commercial name                          : Dolby Digital
Codec ID                                 : A_AC3
Duration                                 : 2 h 4 min
Bit rate mode                            : Constant
Bit rate                                 : 224 kb/s
Channel(s)                               : 2 channels
Channel layout                           : L R
Sampling rate                            : 48.0 kHz
Frame rate                               : 31.250 FPS (1536 SPF)
Compression mode                         : Lossy
Stream size                              : 200 MiB (5%)
Title                                    : Hindi Org DD 2.0 224 kbps By~Hammer~
Language                                 : Hindi
Default                                  : Yes
Forced                                   : Yes

Audio #2
Format                                   : E-AC-3
Format/Info                              : Enhanced AC-3
Commercial name                          : Dolby Digital Plus
Codec ID                                 : A_EAC3
Duration                                 : 2 h 4 min
Bit rate mode                            : Constant
Bit rate                                 : 224 kb/s
Channel(s)                               : 2 channels
Channel layout                           : L R
Sampling rate                            : 48.0 kHz
Frame rate                               : 31.250 FPS (1536 SPF)
Compression mode                         : Lossy
Stream size                              : 200 MiB (5%)
Title                                    : Hindi Org DD+ 2.0 224 kbps By~Hammer~
Language                                 : Hindi
Default                                  : No
Forced                                   : No

Text
Format                                   : PGS
Muxing mode                              : zlib
Codec ID                                 : S_HDMV/PGS
Codec ID/Info                            : Picture based subtitle format used on BDs/HD-DVDs
Duration                                 : 1 h 56 min
Bit rate                                 : 41.6 kb/s
Count of elements                        : 2380
Stream size                              : 34.6 MiB (1%)
Title                                    : English PGS
Language                                 : English
Default                                  : Yes
Forced                                   : No

G- Drive Download 

The FileLocker Download 

0 0 vote
Article Rating
Subscribe
Notify of
guest
1 Comment
Oldest
Newest Most Voted
Inline Feedbacks
View all comments
Mehedi Hasan
Mehedi Hasan
1 year ago

Hello Sir. Can U Upload More Heart Touching Music Video Collection.. Please More Vol Upload