The Matrix Reloaded 2003 4K Remastered Bluray REMUX 1080p Atmos TrueHD 7.1-LBS | 33 GB | G- Drive |

Complete name : The.Matrix.Reloaded.2003.4K Remastered.Bluray.REMUX.1080p.Atmos.TrueHD.7.1-LBS.m2ts
Format : BDAV
Format/Info : Blu-ray Video
File size : 33.7 GiB
Duration : 2 h 18 min
Overall bit rate mode : Variable
Overall bit rate : 34.9 Mb/s
Maximum Overall bit rate : 35.5 Mb/s

ID : 4113 (0x1011)
Menu ID : 1 (0x1)
Format : AVC
Format/Info : Advanced Video Codec
Format profile : [email protected]
Format settings : CABAC / 4 Ref Frames
Format settings, CABAC : Yes
Format settings, ReFrames : 4 frames
Codec ID : 27
Duration : 2 h 18 min
Bit rate mode : Variable
Maximum bit rate : 23.0 Mb/s
Width : 1 920 pixels
Height : 1 080 pixels
Display aspect ratio : 16:9
Frame rate : 23.976 (24000/1001) FPS
Color space : YUV
Chroma subsampling : 4:2:0
Bit depth : 8 bits
Scan type : Progressive

ID : 4352 (0x1100)
Menu ID : 1 (0x1)
Format : TrueHD / AC-3
Format profile : TrueHD+Atmos / TrueHD / AC-3
Muxing mode : Stream extension
Codec ID : 131
Duration : 2 h 18 min
Bit rate mode : Variable / Constant
Bit rate : 448 kb/s
Maximum bit rate : 5 928 kb/s
Channel(s) : Object Based / 8 channels / 6 channels
Channel positions : Object Based / Front: L C R, Side: L R, Back: L R, LFE / Front: L C R, Side: L R, LFE
Sampling rate : / 48.0 kHz / 48.0 kHz
Frame rate : 31.250 FPS (1536 SPF)
Bit depth : 16 bits
Stream size : 443 MiB (1%)
Language : English
Service kind : Complete Main
ID : 4353 (0x1101)
Menu ID : 1 (0x1)
Format : DTS
Format/Info : Digital Theater Systems
Format profile : MA / Core
Muxing mode : Stream extension
Codec ID : 134
Duration : 2 h 18 min
Bit rate mode : Variable / Constant
Bit rate : Unknown / 1 509 kb/s
Channel(s) : 6 channels
Channel positions : Front: L C R, Side: L R, LFE
Sampling rate : 48.0 kHz
Frame rate : 93.750 FPS (512 SPF)
Bit depth : 16 bits
Compression mode : Lossless / Lossy
Delay relative to video : 2 s 0 ms
Language : Chinese

ID : 4354 (0x1102)
Menu ID : 1 (0x1)
Format : TrueHD / AC-3
Muxing mode : Stream extension
Codec ID : 131
Duration : 2 h 18 min
Bit rate mode : Variable / Constant
Bit rate : 640 kb/s
Maximum bit rate : 3 093 kb/s
Channel(s) : 6 channels
Channel positions : Front: L C R, Side: L R, LFE
Sampling rate : 48.0 kHz
Frame rate : 31.250 FPS (1536 SPF)
Bit depth : 16 bits
Delay relative to video : 2 s 0 ms
Stream size : 633 MiB (2%)
Language : Chinese
Service kind : Complete Main

G- Drive Download

0 0 vote
Article Rating
Subscribe
Notify of
guest
0 Comments
Inline Feedbacks
View all comments