The Legend is Born Ip Man 2010 1080p BRRip x264 Hin-Chinese 2.0GB

kickass 2010 300mb in hindi

Format : Matroska
Format version : Version 4
File size : 2.29 GiB
Duration : 1 h 39 min
Overall bit rate mode : Variable
Overall bit rate : 3 293 kb/s
Encoded date : UTC 2020-05-29 04:03:43
Writing application : mkvmerge v46.0.0 (‘No Deeper Escape’) 64-bit
Writing library : libebml v1.3.10 + libmatroska v1.5.2

Video
ID : 1
Format : AVC
Format/Info : Advanced Video Codec
Format profile : [email protected]
Format settings : CABAC / 3 Ref Frames
Format settings, CABAC : Yes
Format settings, Reference frames : 3 frames
Codec ID : V_MPEG4/ISO/AVC
Duration : 1 h 39 min
Bit rate mode : Variable
Bit rate : 3 005 kb/s
Maximum bit rate : 62.5 Mb/s
Width : 1 920 pixels
Height : 816 pixels
Display aspect ratio : 2.35:1
Frame rate mode : Constant
Frame rate : 24.000 FPS
Color space : YUV
Chroma subsampling : 4:2:0
Bit depth : 8 bits
Scan type : Progressive
Bits/(Pixel*Frame) : 0.080
Stream size : 2.09 GiB (91%)
Writing library : x264 core 129 r2245 bc13772
Encoding settings : cabac=1 / ref=3 / deblock=1:0:0 / analyse=0x3:0x113 / me=hex / subme=7 / psy=1 / psy_rd=1.00:0.00 / mixed_ref=1 / me_range=16 / chroma_me=1 / trellis=1 / 8x8dct=1 / cqm=0 / deadzone=21,11 / fast_pskip=1 / chroma_qp_offset=-2 / threads=6 / lookahead_threads=1 / sliced_threads=0 / nr=0 / decimate=1 / interlaced=0 / bluray_compat=0 / constrained_intra=0 / bframes=3 / b_pyramid=0 / b_adapt=1 / b_bias=0 / direct=1 / weightb=1 / open_gop=0 / weightp=2 / keyint=240 / keyint_min=24 / scenecut=40 / intra_refresh=0 / rc_lookahead=40 / rc=2pass / mbtree=1 / bitrate=3005 / ratetol=1.0 / qcomp=0.60 / qpmin=0 / qpmax=69 / qpstep=4 / cplxblur=20.0 / qblur=0.5 / vbv_maxrate=62500 / vbv_bufsize=62500 / nal_hrd=vbr / ip_ratio=1.40 / aq=1:1.00
Default : Yes
Forced : No

Audio #1
ID : 2
Format : AAC LC
Format/Info : Advanced Audio Codec Low Complexity
Codec ID : A_AAC-2
Duration : 1 h 39 min
Bit rate : 256 kb/s
Channel(s) : 6 channels
Channel layout : C L R Ls Rs LFE
Sampling rate : 48.0 kHz
Frame rate : 46.875 FPS (1024 SPF)
Compression mode : Lossy
Delay relative to video : -42 ms
Stream size : 183 MiB (8%)
Default : No
Forced : No

Audio #2
ID : 3
Format : AAC LC SBR
Format/Info : Advanced Audio Codec Low Complexity with Spectral Band Replication
Commercial name : HE-AAC
Format settings : NBC
Codec ID : A_AAC-5
Duration : 1 h 39 min
Bit rate : 32.0 kb/s
Channel(s) : 2 channels
Channel layout : L R
Sampling rate : 22.05 kHz
Frame rate : 10.767 FPS (2048 SPF)
Compression mode : Lossy
Delay relative to video : -42 ms
Stream size : 22.8 MiB (1%)
Title : Stereo
Language : Hindi
Default : Yes
Forced : No

Menu
00:00:00.000 : en:Chapter 01
00:04:54.708 : en:Chapter 02
00:13:46.750 : en:Chapter 03
00:18:55.833 : en:Chapter 04
00:24:47.791 : en:Chapter 05
00:29:25.000 : en:Chapter 06
00:36:14.250 : en:Chapter 07
00:42:50.708 : en:Chapter 08
00:47:42.958 : en:Chapter 09
00:53:11.916 : en:Chapter 10
01:01:54.125 : en:Chapter 11
01:09:24.208 : en:Chapter 12
01:20:12.291 : en:Chapter 13
01:25:09.125 : en:Chapter 14
01:32:36.708 : en:Chapter 15


vlcsnap-2020-05-29-15h58m12s386vlcsnap-2020-05-29-15h58m24s150vlcsnap-2020-05-29-15h58m30s276vlcsnap-2020-05-29-15h58m36s005vlcsnap-2020-05-29-15h58m45s756
Gdrive Single Link+Download
https://bit.ly/2XaCfdk

0 0 vote
Article Rating
Subscribe
Notify of
guest
0 Comments
Inline Feedbacks
View all comments