The Intruder (2019) Bluray 1080p 10bit HEVC [Org DDP 5.1 Hindi + DD 5.1 English] H265 ESubs ~RONIN~ [2.6GB] | G- Drive

General

Format : Matroska
Format version : Version 4
File size : 2.55 GiB
Duration : 1 h 42 min
Overall bit rate : 3 585 kb/s
Movie name : The Intruder (2019) Bluray 1080p 10bit HEVC [Org DDP 5.1 Hindi + DD 5.1 English] H265 ESubs ~RONIN~
Encoded date : UTC 2019-10-01 14:04:32
Writing application : mkvmerge v37.0.0 (‘Leave It’) 64-bit
Writing library : libebml v1.3.9 + libmatroska v1.5.2 / Lavf58.20.100

Video
ID : 1
Format : HEVC
Format/Info : High Efficiency Video Coding
Format profile : Main [email protected]@Main
Codec ID : V_MPEGH/ISO/HEVC
Duration : 1 h 42 min
Bit rate : 2 477 kb/s
Width : 1 920 pixels
Height : 800 pixels
Display aspect ratio : 2.40:1
Frame rate mode : Constant
Frame rate : 23.976 (24000/1001) FPS
Color space : YUV
Chroma subsampling : 4:2:0
Bit depth : 10 bits
Bits/(Pixel*Frame) : 0.067
Stream size : 1.77 GiB (69%)
Title : The Intruder (2019) Bluray 1080p 10bit HEVC [Org DDP 5.1 Hindi + DD 5.1 English] H265 ESubs ~RONIN~
Writing library : x265 2.9:[Windows][GCC 8.2.0][64 bit] 10bit

Default : Yes
Forced : No
Color range : Limited
Color primaries : BT.709
Transfer characteristics : BT.709
Matrix coefficients : BT.709

Audio #1
ID : 2
Format : AC-3
Format/Info : Audio Coding 3
Commercial name : Dolby Digital
Codec ID : A_AC3
Duration : 1 h 42 min
Bit rate mode : Constant
Bit rate : 448 kb/s
Channel(s) : 6 channels
Channel layout : L R C LFE Ls Rs
Sampling rate : 48.0 kHz
Frame rate : 31.250 FPS (1536 SPF)
Bit depth : 16 bits
Compression mode : Lossy
Delay relative to video : -5 ms
Stream size : 327 MiB (12%)
Title : AC3 DD 5.1 448kbps ~RONIN~
Language : English
Service kind : Complete Main
Default : Yes
Forced : No

Audio #2
ID : 4
Format : E-AC-3
Format/Info : Enhanced AC-3
Commercial name : Dolby Digital Plus
Codec ID : A_EAC3
Duration : 1 h 41 min
Bit rate mode : Constant
Bit rate : 640 kb/s
Channel(s) : 6 channels
Channel layout : L R C LFE Ls Rs
Sampling rate : 48.0 kHz
Frame rate : 31.250 FPS (1536 SPF)
Compression mode : Lossy
Delay relative to video : 1 s 967 ms
Stream size : 467 MiB (18%)
Title : DDP 5.1 640kbps ~RONIN~
Language : Hindi
Service kind : Complete Main
Default : No
Forced : No

Text
ID : 3
Format : PGS
Muxing mode : zlib
Codec ID : S_HDMV/PGS
Codec ID/Info : Picture based subtitle format used on BDs/HD-DVDs
Duration : 1 h 34 min
Bit rate : 37.1 kb/s
Count of elements : 2728
Stream size : 25.2 MiB (1%)
Language : English
Default : No
Forced : No

Menu
00:00:00.000 : :Chapter 1
00:03:35.882 : :Chapter 2
00:11:51.711 : :Chapter 3
00:16:14.307 : :Chapter 4
00:20:10.876 : :Chapter 5
00:25:31.530 : :Chapter 6
00:30:50.182 : :Chapter 7
00:36:18.843 : :Chapter 8
00:40:45.777 : :Chapter 9
00:45:31.062 : :Chapter 10
00:50:15.346 : :Chapter 11
00:56:59.416 : :Chapter 12
01:02:12.395 : :Chapter 13
01:08:56.799 : :Chapter 14
01:14:16.452 : :Chapter 15
01:23:50.359 : :Chapter 16

G- Drive Download 2.6 GB

The File Locker Download 2.6 GB

0 0 vote
Article Rating
Subscribe
Notify of
guest
0 Comments
Inline Feedbacks
View all comments