The Intruder 2019 1080p Untouched WEB-DL {Multi Audio} {Hindi-Tam-Tel-Eng DD 5.1} MSub By~Hammer~ | G- Drive | 5.54 GB

General
Format                                   : Matroska
Format version                           : Version 4 / Version 2
File size                                : 5.54 GiB
Duration                                 : 1 h 41 min
Overall bit rate                         : 7 784 kb/s
Movie name                               : The Intruder 2019 1080p Untouched WEB-DL {Multi Audio} {Hindi-Tam-Tel-Eng DD 5.1} MSub By~Hammer~
Bit rate                                 : 5 220 kb/s
Width                                    : 1 920 pixels
Height                                   : 800 pixels
Display aspect ratio                     : 2.40:1
Frame rate mode                          : Constant
Frame rate                               : 23.976 (24000/1001) FPS
Color space                              : YUV
Chroma subsampling                       : 4:2:0
Bit depth                                : 8 bits
Scan type                                : Progressive
Bits/(Pixel*Frame)                       : 0.142
Stream size                              : 3.72 GiB (67%)
Title                                    : By~Hammer~
Language                                 : English
Default                                  : Yes
Forced                                   : No

Audio #1
Format                                   : AC-3
Format/Info                              : Audio Coding 3
Codec ID                                 : A_AC3
Duration                                 : 1 h 41 min
Bit rate mode                            : Constant
Bit rate                                 : 640 kb/s
Channel(s)                               : 6 channels
Channel positions                        : Front: L C R, Side: L R, LFE
Sampling rate                            : 48.0 kHz
Frame rate                               : 31.250 FPS (1536 SPF)
Bit depth                                : 16 bits
Compression mode                         : Lossy
Stream size                              : 467 MiB (8%)
Title                                    : Hindi Org DD 5.1 640 kbps By~Hammer~
Language                                 : Hindi
Default                                  : Yes
Forced                                   : No

Audio #2
Format                                   : AC-3
Format/Info                              : Audio Coding 3
Codec ID                                 : A_AC3
Duration                                 : 1 h 41 min
Bit rate mode                            : Constant
Bit rate                                 : 640 kb/s
Channel(s)                               : 6 channels
Channel positions                        : Front: L C R, Side: L R, LFE
Sampling rate                            : 48.0 kHz
Frame rate                               : 31.250 FPS (1536 SPF)
Bit depth                                : 16 bits
Compression mode                         : Lossy
Stream size                              : 467 MiB (8%)
Title                                    : Tamil Org DD 5.1 640 kbps By~Hammer~
Language                                 : Tamil
Default                                  : No
Forced                                   : No

Audio #3
Format                                   : AC-3
Format/Info                              : Audio Coding 3
Codec ID                                 : A_AC3
Duration                                 : 1 h 41 min
Bit rate mode                            : Constant
Bit rate                                 : 640 kb/s
Channel(s)                               : 6 channels
Channel positions                        : Front: L C R, Side: L R, LFE
Sampling rate                            : 48.0 kHz
Frame rate                               : 31.250 FPS (1536 SPF)
Bit depth                                : 16 bits
Compression mode                         : Lossy
Stream size                              : 467 MiB (8%)
Title                                    : Telugu Org DD 5.1 640 kbps By~Hammer~
Language                                 : Telugu
Default                                  : No
Forced                                   : No

Audio #4
Format                                   : E-AC-3
Format/Info                              : Enhanced Audio Coding 3
Codec ID                                 : A_EAC3
Duration                                 : 1 h 41 min
Bit rate mode                            : Constant
Bit rate                                 : 640 kb/s
Channel(s)                               : 6 channels
Channel positions                        : Front: L C R, Side: L R, LFE
Sampling rate                            : 48.0 kHz
Frame rate                               : 187.500 FPS (256 SPF)
Compression mode                         : Lossy
Stream size                              : 467 MiB (8%)
Title                                    : English DD+ 5.1 640 kbps By~Hammer~
Language                                 : English
Default                                  : No
Forced                                   : No

Text #1
Format                                   : UTF-8
Codec ID                                 : S_TEXT/UTF8
Codec ID/Info                            : UTF-8 Plain Text
Duration                                 : 1 h 36 min
Bit rate                                 : 67 b/s
Count of elements                        : 1573
Stream size                              : 47.9 KiB (0%)
Title                                    : English PGS
Language                                 : English
Default                                  : Yes
Forced                                   : No

Text #2
Format                                   : UTF-8
Codec ID                                 : S_TEXT/UTF8
Codec ID/Info                            : UTF-8 Plain Text
Duration                                 : 1 h 40 min
Bit rate                                 : 101 b/s
Count of elements                        : 1368
Stream size                              : 75.0 KiB (0%)
Title                                    : Hindi SRT
Language                                 : Hindi
Default                                  : No
Forced                                   : No

Text #3
Format                                   : UTF-8
Codec ID                                 : S_TEXT/UTF8
Codec ID/Info                            : UTF-8 Plain Text
Duration                                 : 1 h 40 min
Bit rate                                 : 45 b/s
Count of elements                        : 1367
Stream size                              : 33.6 KiB (0%)
Title                                    : Tamil SRT
Language                                 : Tamil
Default                                  : No
Forced                                   : No

Text #4
Format                                   : UTF-8
Codec ID                                 : S_TEXT/UTF8
Codec ID/Info                            : UTF-8 Plain Text
Duration                                 : 1 h 40 min
Bit rate                                 : 61 b/s
Count of elements                        : 1368
Stream size                              : 45.2 KiB (0%)
Title                                    : Telugu SRT
Language                                 : Telugu
Default                                  : No
Forced                                   : No

G- Drive Download 5.54 GB

0 0 vote
Article Rating
Subscribe
Notify of
guest
0 Comments
Inline Feedbacks
View all comments