The Intruder (2019) 1080p BluRay x264 Dual Audio [Hindi DD5.1 – English DD5.1] – ESUBS ~ Ranvijay | G- Drive | 4 GB

The Intruder (2019) 1080p BluRay x264 Dual Audio [Hindi DD5.1 – English DD5.1] – ESUBS ~ Ranvijay

Thanks To Hammer For Hindi Audio

General
Format : Matroska
Format version : Version 4 / Version 2
File size : 4.02 GiB
Duration : 1 h 42 min
Overall bit rate : 5 647 kb/s
Movie name : The Intruder (2019) 1080p BluRay x264 Dual Audio [Hindi DD5.1 – English DD5.1] – ESUBS ~ Ranvijay

Video
ID : 1
Format : AVC
Format/Info : Advanced Video Codec
Format profile : [email protected]
Format settings : CABAC / 5 Ref Frames
Format settings, CABAC : Yes
Format settings, RefFrames : 5 frames
Codec ID : V_MPEG4/ISO/AVC
Duration : 1 h 42 min
Bit rate : 4 500 kb/s
Width : 1 920 pixels
Height : 800 pixels
Display aspect ratio : 2.40:1
Frame rate mode : Constant
Frame rate : 23.976 (24000/1001) FPS
Color space : YUV
Chroma subsampling : 4:2:0
Bit depth : 8 bits
Scan type : Progressive
Bits/(Pixel*Frame) : 0.122
Stream size : 3.21 GiB (80%)
Title : ~Ranvijay~

Audio #1
ID : 2
Format : AC-3
Format/Info : Audio Coding 3
Codec ID : A_AC3
Duration : 1 h 41 min
Bit rate mode : Constant
Bit rate : 640 kb/s
Channel(s) : 6 channels
Channel positions : Front: L C R, Side: L R, LFE
Sampling rate : 48.0 kHz
Frame rate : 31.250 FPS (1536 SPF)
Bit depth : 16 bits
Compression mode : Lossy
Delay relative to video : 1 s 972 ms
Stream size : 467 MiB (11%)
Title : ~Ranvijay~
Language : Hindi
Service kind : Complete Main
Default : Yes
Forced : Yes

Audio #2
ID : 3
Format : AC-3
Format/Info : Audio Coding 3
Codec ID : A_AC3
Duration : 1 h 42 min
Bit rate mode : Constant
Bit rate : 384 kb/s
Channel(s) : 6 channels
Channel positions : Front: L C R, Side: L R, LFE
Sampling rate : 48.0 kHz
Frame rate : 31.250 FPS (1536 SPF)
Bit depth : 16 bits
Compression mode : Lossy
Stream size : 280 MiB (7%)
Title : ~Ranvijay~
Language : English
Service kind : Complete Main
Default : No
Forced : No

Text #1
ID : 4
Format : PGS
Muxing mode : zlib
Codec ID : S_HDMV/PGS
Codec ID/Info : Picture based subtitle format used on BDs/HD-DVDs
Duration : 1 h 34 min
Bit rate : 37.1 kb/s
Count of elements : 2728
Stream size : 25.2 MiB (1%)
Title : ~Ranvijay~
Language : English
Default : Yes
Forced : Yes

Text #2
ID : 5
Format : PGS
Muxing mode : zlib
Codec ID : S_HDMV/PGS
Codec ID/Info : Picture based subtitle format used on BDs/HD-DVDs
Duration : 1 h 36 min
Bit rate : 41.2 kb/s
Count of elements : 3155
Stream size : 28.6 MiB (1%)
Title : ~Ranvijay~
Language : English
Default : No
Forced : No

Text #3
ID : 6
Format : PGS
Muxing mode : zlib
Codec ID : S_HDMV/PGS
Codec ID/Info : Picture based subtitle format used on BDs/HD-DVDs
Duration : 1 h 34 min
Bit rate : 37.1 kb/s
Count of elements : 2736
Stream size : 25.2 MiB (1%)
Title : ~Ranvijay~
Language : English
Default : No
Forced : No

Text #4
ID : 7
Format : PGS
Muxing mode : zlib
Codec ID : S_HDMV/PGS
Codec ID/Info : Picture based subtitle format used on BDs/HD-DVDs
Duration : 1 h 36 min
Bit rate : 73.3 kb/s
Count of elements : 3852
Stream size : 50.7 MiB (1%)
Title : ~Ranvijay~
Language : English
Default : No
Forced : No

Text #5
ID : 8
Format : PGS
Muxing mode : zlib
Codec ID : S_HDMV/PGS
Codec ID/Info : Picture based subtitle format used on BDs/HD-DVDs
Duration : 1 h 36 min
Bit rate : 64.0 kb/s
Count of elements : 3545
Stream size : 44.3 MiB (1%)
Title : ~Ranvijay~
Language : English
Default : No
Forced : No

Menu
00:00:00.000 : :Chapter 01
00:03:35.590 : :Chapter 02
00:11:51.460 : :Chapter 03
00:16:14.264 : :Chapter 04
00:20:10.792 : :Chapter 05
00:25:31.196 : :Chapter 06
00:30:50.139 : :Chapter 07
00:36:18.509 : :Chapter 08
00:40:45.734 : :Chapter 09
00:45:30.853 : :Chapter 10
00:50:15.178 : :Chapter 11
00:56:59.249 : :Chapter 12
01:02:12.270 : :Chapter 13
01:08:56.507 : :Chapter 14
01:14:16.285 : :Chapter 15
01:23:50.025 : :Chapter 16

G- Drive Download 4 GB

The File Locker Download 4 GB

0 0 vote
Article Rating
Subscribe
Notify of
guest
0 Comments
Inline Feedbacks
View all comments