The Greatest Showman (2017) 1080p.[Dual.Audio] [Org.BD] {Hindi+Eng.6Ch} -~{[email protected]}

Format : Matroska
Format version : Version 4
File size : 3.50 GiB
Duration : 1 h 44 min
Overall bit rate mode : Variable
Overall bit rate : 4 781 kb/s
Movie name : .-~{[email protected]}~-.
Encoded date : UTC 2018-07-22 09:13:28
Writing application : mkvmerge v11.0.0 (‘Alive’) 64bit
Writing library : libebml v1.3.4 + libmatroska v1.4.5

Video
ID : 1
Format : AVC
Format/Info : Advanced Video Codec
Format profile : [email protected]
Format settings : CABAC / 5 Ref Frames
Format settings, CABAC : Yes
Format settings, ReFrames : 5 frames
Codec ID : V_MPEG4/ISO/AVC
Duration : 1 h 44 min
Bit rate mode : Variable
Bit rate : 3 789 kb/s
Maximum bit rate : 62.5 Mb/s
Width : 1 920 pixels
Height : 800 pixels
Display aspect ratio : 2.40:1
Frame rate mode : Constant
Frame rate : 23.976 (24000/1001) FPS
Color space : YUV
Chroma subsampling : 4:2:0
Bit depth : 8 bits
Scan type : Progressive
Bits/(Pixel*Frame) : 0.103
Stream size : 2.77 GiB (79%)

Language : Hindi
Default : Yes
Forced : No

Audio #1
ID : 2
Format : AC-3
Format/Info : Audio Coding 3
Commercial name : Dolby Digital
Codec ID : A_AC3
Duration : 1 h 44 min
Bit rate mode : Constant
Bit rate : 448 kb/s
Channel(s) : 6 channels
Channel layout : L R C LFE Ls Rs
Sampling rate : 48.0 kHz
Frame rate : 31.250 FPS (1536 SPF)
Bit depth : 16 bits
Compression mode : Lossy
Stream size : 336 MiB (9%)
Title : RiPPER~ L3GEND ~ORG BLURAY DOLBY DIGITAL [email protected]~
Language : Hindi
Service kind : Complete Main
Default : Yes
Forced : No

Audio #2
ID : 3
Format : AC-3
Format/Info : Audio Coding 3
Commercial name : Dolby Digital
Codec ID : A_AC3
Duration : 1 h 44 min
Bit rate mode : Constant
Bit rate : 448 kb/s
Channel(s) : 6 channels
Channel layout : L R C LFE Ls Rs
Sampling rate : 48.0 kHz
Frame rate : 31.250 FPS (1536 SPF)
Bit depth : 16 bits
Compression mode : Lossy
Stream size : 336 MiB (9%)
Title : RiPPER~ L3GEND ~ORG BLURAY DOLBY DIGITAL [email protected]~
Language : English
Service kind : Complete Main
Default : No
Forced : No

Text #1
ID : 4
Format : PGS
Muxing mode : zlib
Codec ID : S_HDMV/PGS
Codec ID/Info : Picture based subtitle format used on BDs/HD-DVDs
Duration : 1 h 43 min
Bit rate : 59.0 kb/s
Count of elements : 5255
Stream size : 43.6 MiB (1%)
Title : L3GEND~ Songs Colored Presentation Graphics Subtitles~
Language : English
Default : Yes
Forced : No

Text #2
ID : 5
Format : PGS
Muxing mode : zlib
Codec ID : S_HDMV/PGS
Codec ID/Info : Picture based subtitle format used on BDs/HD-DVDs
Duration : 1 h 36 min
Bit rate : 22.0 kb/s
Count of elements : 2359
Stream size : 15.2 MiB (0%)
Title : L3GEND~ Presentation Graphics Subtitles~
Language : English
Default : No
Forced : No

Text #3
ID : 6
Format : PGS
Muxing mode : zlib
Codec ID : S_HDMV/PGS
Codec ID/Info : Picture based subtitle format used on BDs/HD-DVDs
Duration : 1 h 44 min
Bit rate : 15.0 kb/s
Count of elements : 3034
Stream size : 11.2 MiB (0%)
Title : L3GEND~ Presentation Graphics Subtitles~
Language : Hindi
Default : No
Forced : No

5fea2f46881ea646591a758e21d2a6fb.jpg
2bf81c5e3006a9a767b865b2d43b76af.jpg
9c8e40c27453d674125d64d0264d6c88.jpg
1a4010ec03ef9766338f5b2491066422.jpg

G-Drive | The File Locker

 

0 0 vote
Article Rating
Subscribe
Notify of
guest
2 Comments
Oldest
Newest Most Voted
Inline Feedbacks
View all comments
amirsohail
1 year ago

1920 London 1080p karo upload

amirsohail
1 year ago

Karo upload