The.Godfather.Part.III.1990.1080p.BluRay.10bit.HEVC.6CH Hin-Eng 4.07Gb

The Godfather: Part III 1990 — NABILNET

Format : Matroska
Format version : Version 4
File size : 4.08 GiB
Duration : 2 h 50 min
Overall bit rate : 3 431 kb/s
Writing application : mkvmerge v46.0.0 (‘No Deeper Escape’) 64-bit
Writing library : libebml v1.3.10 + libmatroska v1.5.2
Cover : Yes

Video
ID : 1
Format : HEVC
Format/Info : High Efficiency Video Coding
Format profile : Main [email protected]@Main
Codec ID : V_MPEGH/ISO/HEVC
Duration : 2 h 50 min
Bit rate : 3 110 kb/s
Width : 1 920 pixels
Height : 1 080 pixels
Display aspect ratio : 16:9
Frame rate mode : Constant
Frame rate : 23.976 (24000/1001) FPS
Color space : YUV
Chroma subsampling : 4:2:0
Bit depth : 10 bits
Bits/(Pixel*Frame) : 0.063
Stream size : 3.70 GiB (91%)
Default : Yes
Forced : No

Audio #1
ID : 2
Format : AAC LC SBR
Format/Info : Advanced Audio Codec Low Complexity with Spectral Band Replication
Commercial name : HE-AAC
Format settings : Explicit
Codec ID : A_AAC-2
Duration : 2 h 50 min
Bit rate : 256 kb/s
Channel(s) : 6 channels
Channel layout : C L R Ls Rs LFE
Sampling rate : 48.0 kHz
Frame rate : 23.438 FPS (2048 SPF)
Compression mode : Lossy
Delay relative to video : 43 ms
Stream size : 312 MiB (7%)
Language : English
Default : Yes
Forced : No

Audio #2
ID : 5
Format : AC-3
Format/Info : Audio Coding 3
Commercial name : Dolby Digital
Codec ID : A_AC3
Duration : 2 h 47 min
Bit rate mode : Constant
Bit rate : 64.0 kb/s
Channel(s) : 2 channels
Channel layout : L R
Sampling rate : 44.1 kHz
Frame rate : 28.711 FPS (1536 SPF)
Compression mode : Lossy
Stream size : 76.6 MiB (2%)
Language : Hindi
Service kind : Complete Main
Default : No
Forced : Yes

Text #1
ID : 3
Format : UTF-8
Codec ID : S_TEXT/UTF8
Codec ID/Info : UTF-8 Plain Text
Duration : 2 h 44 min
Bit rate : 45 b/s
Count of elements : 1533
Stream size : 54.2 KiB (0%)
Title : HI
Language : English
Default : Yes
Forced : No

Text #2
ID : 4
Format : UTF-8
Codec ID : S_TEXT/UTF8
Codec ID/Info : UTF-8 Plain Text
Duration : 2 h 37 min
Bit rate : 42 b/s
Count of elements : 1298
Stream size : 48.8 KiB (0%)
Language : English
Default : No
Forced : No

Menu
00:00:00.000 : en:Chapter 01
00:06:01.152 : en:Chapter 02
00:14:36.333 : en:Chapter 03
00:23:00.087 : en:Chapter 04
00:32:25.318 : en:Chapter 05
00:39:26.197 : en:Chapter 06
00:43:00.286 : en:Chapter 07
00:49:31.051 : en:Chapter 08
00:53:31.583 : en:Chapter 09
01:04:12.265 : en:Chapter 10
01:12:41.273 : en:Chapter 11
01:16:32.713 : en:Chapter 12
01:19:46.198 : en:Chapter 13
01:25:00.720 : en:Chapter 14
01:33:08.416 : en:Chapter 15
01:38:18.601 : en:Chapter 16
01:49:40.365 : en:Chapter 17
02:03:38.786 : en:Chapter 18
02:06:16.360 : en:Chapter 19
02:12:26.355 : en:Chapter 20
02:17:46.299 : en:Chapter 21
02:26:51.302 : en:Chapter 22
02:35:44.251 : en:Chapter 23
02:40:44.926 : en:Chapter 24
02:42:45.338 : en:Chapter 25


vlcsnap-2020-05-27-10h14m49s156vlcsnap-2020-05-27-10h15m01s581vlcsnap-2020-05-27-10h15m11s889vlcsnap-2020-05-27-10h15m21s970vlcsnap-2020-05-27-10h15m35s522vlcsnap-2020-05-27-10h15m51s368vlcsnap-2020-05-27-10h16m14s788vlcsnap-2020-05-27-10h16m24s328
Gdrive Single Link+Download
https://bit.ly/3c2EEel

0 0 vote
Article Rating
Subscribe
Notify of
guest
0 Comments
Inline Feedbacks
View all comments