The.Godfather.Part.II.1974.1080p.BluRay.10bit.HEVC.6CH Hin-Eng 5.0GB

Amazon.com: The Godfather Part II (Coppola Restoration) [Blu-ray ...

Format : Matroska
Format version : Version 4
File size : 5.30 GiB
Duration : 3 h 22 min
Overall bit rate : 3 752 kb/s
Writing library : libebml v1.3.10 + libmatroska v1.5.2
Cover : Yes

Video
ID : 1
Format : HEVC
Format/Info : High Efficiency Video Coding
Format profile : Main [email protected]@Main
Codec ID : V_MPEGH/ISO/HEVC
Duration : 3 h 22 min
Bit rate : 3 430 kb/s
Width : 1 920 pixels
Height : 1 080 pixels
Display aspect ratio : 16:9
Frame rate mode : Constant
Frame rate : 23.976 (24000/1001) FPS
Color space : YUV
Chroma subsampling : 4:2:0
Bit depth : 10 bits
Bits/(Pixel*Frame) : 0.069
Stream size : 4.84 GiB (91%)
Default : Yes
Forced : No

Audio #1
ID : 2
Format : AAC LC SBR
Format/Info : Advanced Audio Codec Low Complexity with Spectral Band Replication
Commercial name : HE-AAC
Format settings : Explicit
Codec ID : A_AAC-2
Duration : 3 h 22 min
Bit rate : 256 kb/s
Channel(s) : 6 channels
Channel layout : C L R Ls Rs LFE
Sampling rate : 48.0 kHz
Frame rate : 23.438 FPS (2048 SPF)
Compression mode : Lossy
Delay relative to video : 43 ms
Stream size : 370 MiB (7%)
Language : English
Default : Yes
Forced : No

Audio #2
ID : 5
Format : AC-3
Format/Info : Audio Coding 3
Commercial name : Dolby Digital
Codec ID : A_AC3
Duration : 3 h 18 min
Bit rate mode : Constant
Bit rate : 64.0 kb/s
Channel(s) : 2 channels
Channel layout : L R
Sampling rate : 44.1 kHz
Frame rate : 28.711 FPS (1536 SPF)
Compression mode : Lossy
Stream size : 90.9 MiB (2%)
Language : Hindi
Service kind : Complete Main
Default : No
Forced : Yes

Text #1
ID : 3
Format : UTF-8
Codec ID : S_TEXT/UTF8
Codec ID/Info : UTF-8 Plain Text
Duration : 3 h 14 min
Bit rate : 47 b/s
Count of elements : 1818
Stream size : 68.2 KiB (0%)
Title : HI
Language : English
Default : Yes
Forced : No

Text #2
ID : 4
Format : UTF-8
Codec ID : S_TEXT/UTF8
Codec ID/Info : UTF-8 Plain Text
Duration : 3 h 13 min
Bit rate : 43 b/s
Count of elements : 1526
Stream size : 61.0 KiB (0%)
Language : English
Default : No
Forced : No

Menu
00:00:00.000 : en:Chapter 01
00:03:40.428 : en:Chapter 02
00:07:29.740 : en:Chapter 03
00:12:04.765 : en:Chapter 04
00:16:18.185 : en:Chapter 05
00:27:38.114 : en:Chapter 06
00:34:28.191 : en:Chapter 07
00:43:44.705 : en:Chapter 08
00:49:32.511 : en:Chapter 09
00:59:50.086 : en:Chapter 10
01:12:52.034 : en:Chapter 11
01:17:13.587 : en:Chapter 12
01:26:18.882 : en:Chapter 13
01:47:22.227 : en:Chapter 14
01:50:16.943 : en:Chapter 15
01:55:32.425 : en:Chapter 16
02:06:50.686 : en:Chapter 17
02:13:12.484 : en:Chapter 18
02:20:50.483 : en:Chapter 19
02:28:29.692 : en:Chapter 20
02:33:35.956 : en:Chapter 21
02:37:57.009 : en:Chapter 22
02:44:08.505 : en:Chapter 23
02:51:08.383 : en:Chapter 24
02:56:46.721 : en:Chapter 25
03:01:32.882 : en:Chapter 26
03:05:20.400 : en:Chapter 27
03:07:25.859 : en:Chapter 28
03:12:01.510 : en:Chapter 29
03:16:56.971 : en:Chapter 30


vlcsnap-2020-05-27-10h07m17s279vlcsnap-2020-05-27-10h07m22s999vlcsnap-2020-05-27-10h07m29s399vlcsnap-2020-05-27-10h07m42s941vlcsnap-2020-05-27-10h08m14s162vlcsnap-2020-05-27-10h08m37s248vlcsnap-2020-05-27-10h08m45s107
Gdrive Single Link+Download
https://bit.ly/3c6fiMT

0 0 vote
Article Rating
Subscribe
Notify of
guest
0 Comments
Inline Feedbacks
View all comments