The Gambler 2014 Blue-ray 1080p X264 Dual Audio ( Hindi 5.1 + English 5.1 ) Esub

Format : Matroska
Format version : Version 4
File size : 2.96 GiB
Duration : 1 h 51 min
Overall bit rate : 3 789 kb/s
Movie name : [DesiShare.org]
Encoded date : UTC 2019-08-17 05:18:27
Writing application : mkvmerge v29.0.0 (‘Like It Or Not’) 32-bit
Writing library : libebml v1.3.6 + libmatroska v1.4.9

Video
ID : 1
Format : AVC
Format/Info : Advanced Video Codec
Format profile : [email protected]
Format settings : CABAC / 4 Ref Frames
Format settings, CABAC : Yes
Format settings, ReFrames : 4 frames
Codec ID : V_MPEG4/ISO/AVC
Duration : 1 h 50 min
Bit rate : 3 049 kb/s
Width : 1 920 pixels
Height : 800 pixels
Display aspect ratio : 2.40:1
Frame rate mode : Constant
Frame rate : 23.976 (24000/1001) FPS
Color space : YUV
Chroma subsampling : 4:2:0
Bit depth : 8 bits
Scan type : Progressive
Bits/(Pixel*Frame) : 0.083
Stream size : 2.36 GiB (80%)
Title : [DesiShare.org]

Default : Yes
Forced : Yes

Audio #1
ID : 2
Format : AC-3
Format/Info : Audio Coding 3
Commercial name : Dolby Digital
Codec ID : A_AC3
Duration : 1 h 51 min
Bit rate mode : Constant
Bit rate : 384 kb/s
Channel(s) : 6 channels
Channel layout : L R C LFE Ls Rs
Sampling rate : 48.0 kHz
Frame rate : 31.250 FPS (1536 SPF)
Bit depth : 16 bits
Compression mode : Lossy
Stream size : 307 MiB (10%)
Title : [DesiShare.org]
Language : Hindi
Service kind : Complete Main
Default : Yes
Forced : Yes

Audio #2
ID : 3
Format : AC-3
Format/Info : Audio Coding 3
Commercial name : Dolby Digital
Codec ID : A_AC3
Duration : 1 h 50 min
Bit rate mode : Constant
Bit rate : 384 kb/s
Channel(s) : 6 channels
Channel layout : L R C LFE Ls Rs
Sampling rate : 48.0 kHz
Frame rate : 31.250 FPS (1536 SPF)
Bit depth : 16 bits
Compression mode : Lossy
Stream size : 305 MiB (10%)
Title : [DesiShare.org]
Language : English
Service kind : Complete Main
Default : No
Forced : No

Text
ID : 4
Format : UTF-8
Codec ID : S_TEXT/UTF8
Codec ID/Info : UTF-8 Plain Text
Duration : 1 h 42 min
Bit rate : 61 b/s
Count of elements : 1470
Stream size : 46.3 KiB (0%)
Title : [DesiShare.org]
Language : English
Default : Yes
Forced : Yes

0645cd260732c3cd86ce7dcabf63db24.jpg
d02cc16963398aaac8b24aee9f69cc29.jpg
68e52f148532684127e03f28bfe229a7.jpg
4f35dcea9ddfedd1879befd2f2ce00d3.jpg
d5b9037c8c52494fbc69657573a4e221.jpg
5cb594fd69e4517b5a485060c8a4b5b2.jpg
7025d129e4a37edd5ffb5489e1018242.jpg

1080p

PLAY ONLINE

The File Locker Download {2.96 GB}

Quick Download {2.96 GB} 

{ Direct } Download  Link {2.96 GB}

{ G-Drive } Download  Link {2.96 GB}

{ Mega – Drive } Download  Link {2.96 GB} 

{Media Fire } Download  Link {2.96 GB}

0 0 vote
Article Rating
Subscribe
Notify of
guest
1 Comment
Oldest
Newest Most Voted
Inline Feedbacks
View all comments
din mohammad
din mohammad
1 year ago

tnx……….