The Finest Hours (2016) 1080p [Dual Audio] [Org DD] {Hindi 2.0+Eng.6Ch} -~{[email protected]}

Format : Matroska
Format version : Version 4
File size : 3.59 GiB
Duration : 1 h 57 min
Overall bit rate mode : Variable
Overall bit rate : 4 351 kb/s
Movie name : .-~{[email protected]}~-.
Encoded date : UTC 2018-03-16 09:08:27
Writing application : mkvmerge v11.0.0 (‘Alive’) 64bit
Writing library : libebml v1.3.4 + libmatroska v1.4.5

Video
ID : 1
Format : AVC
Format/Info : Advanced Video Codec
Format profile : [email protected]
Format settings : CABAC / 5 Ref Frames
Format settings, CABAC : Yes
Format settings, ReFrames : 5 frames
Codec ID : V_MPEG4/ISO/AVC
Duration : 1 h 57 min
Bit rate mode : Variable
Bit rate : 3 789 kb/s
Maximum bit rate : 62.5 Mb/s
Width : 1 920 pixels
Height : 800 pixels
Display aspect ratio : 2.40:1
Frame rate mode : Constant
Frame rate : 23.976 (24000/1001) FPS
Color space : YUV
Chroma subsampling : 4:2:0
Bit depth : 8 bits
Scan type : Progressive
Bits/(Pixel*Frame) : 0.103
Stream size : 3.10 GiB (87%)

Audio #1
ID : 2
Format : E-AC-3
Format/Info : Enhanced AC-3
Commercial name : Dolby Digital Plus
Codec ID : A_EAC3
Duration : 1 h 57 min
Bit rate mode : Constant
Bit rate : 128 kb/s
Channel(s) : 2 channels
Channel layout : L R
Sampling rate : 48.0 kHz
Frame rate : 31.250 FPS (1536 SPF)
Compression mode : Lossy
Delay relative to video : 1 s 150 ms
Stream size : 108 MiB (3%)
Title : RiPPER~ L3GEND~ ORG NETFLIX DOLBY DIGITAL [email protected]~
Language : Hindi
Service kind : Complete Main
Default : Yes
Forced : No

Audio #2
ID : 3
Format : AC-3
Format/Info : Audio Coding 3
Commercial name : Dolby Digital
Codec ID : A_AC3
Duration : 1 h 57 min
Bit rate mode : Constant
Bit rate : 448 kb/s
Channel(s) : 6 channels
Channel layout : L R C LFE Ls Rs
Sampling rate : 48.0 kHz
Frame rate : 31.250 FPS (1536 SPF)
Bit depth : 16 bits
Compression mode : Lossy
Stream size : 376 MiB (10%)
Title : RiPPER~ L3GEND~ ORG BLURAY DOLBY DIGITAL [email protected]~
Language : English
Service kind : Complete Main
Default : No
Forced : No

Text
ID : 4
Format : PGS
Muxing mode : zlib
Codec ID : S_HDMV/PGS
Codec ID/Info : Picture based subtitle format used on BDs/HD-DVDs
Duration : 1 h 47 min
Bit rate : 9 151 b/s
Count of elements : 2304
Stream size : 7.07 MiB (0%)
Title : L3GEND~ Presentation Graphics Subtitles~
Language : English
Default : Yes
Forced : No

9bea9e22c15ce7f73e4ff216b451334f.jpg
04ab9ca4d01a5ce0840527060739cc7b.jpg
3901f6c542ac896e759af95c3210ecec.jpg
ead5400684c931c29794d91a526a0826.jpg
11b2a323ca07d424553acb3b0ae7cdfa.jpg
844e8622a4538c54bdc6ab0a256088d7.jpg

G-Drive | The File Locker

0 0 vote
Article Rating
Subscribe
Notify of
guest
0 Comments
Inline Feedbacks
View all comments