The Expendables (2010) 1080p BluRay x264 {Multi Audio} {Hin-Tam-Tel-Eng DD 5.1 640 kbps} ESub By~Hammer~

General
Format : Matroska
Format version : Version 4 / Version 2
File size : 5.47 GiB
Duration : 1 h 43 min
Overall bit rate : 7 569 kb/s
Movie name : The Expendables (2010) 1080p BluRay x264 {Multi Audio} {Hin-Tam-Tel-Eng DD 5.1 640 kbps} ESub By~Hammer~
Bit rate : 5 000 kb/s
Width : 1 920 pixels
Height : 800 pixels
Display aspect ratio : 2.40:1
Frame rate mode : Constant
Frame rate : 23.976 (24000/1001) FPS
Title : ~EncodeR~Hammer~
Language : English
Default : Yes
Forced : No

Audio #1
Format : AC-3
Format/Info : Audio Coding 3
Codec ID : A_AC3
Duration : 1 h 43 min
Bit rate mode : Constant
Bit rate : 640 kb/s
Channel(s) : 6 channels
Channel positions : Front: L C R, Side: L R, LFE
Sampling rate : 48.0 kHz
Frame rate : 31.250 FPS (1536 SPF)
Bit depth : 16 bits
Compression mode : Lossy
Stream size : 473 MiB (8%)
Title : Hindi Org DD 5.1 640 kbps By~Hammer~
Language : Hindi
Default : Yes
Forced : Yes

Audio #2
Format : AC-3
Format/Info : Audio Coding 3
Codec ID : A_AC3
Duration : 1 h 43 min
Bit rate mode : Constant
Bit rate : 640 kb/s
Channel(s) : 6 channels
Channel positions : Front: L C R, Side: L R, LFE
Sampling rate : 48.0 kHz
Frame rate : 31.250 FPS (1536 SPF)
Bit depth : 16 bits
Compression mode : Lossy
Stream size : 473 MiB (8%)
Title : Tamil Org DD 5.1 640 kbps By~Hammer~
Language : Tamil
Default : No
Forced : No

Audio #3
Format : AC-3
Format/Info : Audio Coding 3
Codec ID : A_AC3
Duration : 1 h 43 min
Bit rate mode : Constant
Bit rate : 640 kb/s
Channel(s) : 6 channels
Channel positions : Front: L C R, Side: L R, LFE
Sampling rate : 48.0 kHz
Frame rate : 31.250 FPS (1536 SPF)
Bit depth : 16 bits
Compression mode : Lossy
Stream size : 473 MiB (8%)
Title : Telugu Org DD 5.1 640 kbps By~Hammer~
Language : Telugu
Default : No
Forced : No

Audio #4
Format : AC-3
Format/Info : Audio Coding 3
Codec ID : A_AC3
Duration : 1 h 43 min
Bit rate mode : Constant
Bit rate : 640 kb/s
Channel(s) : 6 channels
Channel positions : Front: L C R, Side: L R, LFE
Sampling rate : 48.0 kHz
Frame rate : 31.250 FPS (1536 SPF)
Bit depth : 16 bits
Compression mode : Lossy
Stream size : 474 MiB (8%)
Title : English BD 5.1 640 kbps By~Hammer~
Language : English
Default : No
Forced : No

Text
Format : PGS
Muxing mode : zlib
Codec ID : S_HDMV/PGS
Codec ID/Info : Picture based subtitle format used on BDs/HD-DVDs
Duration : 1 h 29 min
Bit rate : 8 297 b/s
Count of elements : 1738
Stream size : 5.31 MiB (0%)
Title : English PGS
Language : English
Default : Yes
Forced : No

G- Drive Download 5.47 GB

The File Locker Download 5.47 GB

 

0 0 vote
Article Rating
Subscribe
Notify of
guest
9 Comments
Oldest
Newest Most Voted
Inline Feedbacks
View all comments
lethal111
lethal111
1 year ago

dear sir, Happy New Year in advance….

plz post

Deewar 1975 BD50 untouched bluray hindi movie bit early ,dear.

Mehedi Hasan
Mehedi Hasan
1 year ago

Hello Sir. Can U Upload More Heart Touching Music Video Collection.. Please More Vol Upload

lethal111
lethal111
1 year ago

dear bro, can you also upload Hum Apke Hain Kaun 1994 BD50 untouched bluray hindi movie

Abdul
Abdul
1 year ago

Hello Sir can you upload the expendables 2 and 3 1080p BluRay

Suman Banik
Suman Banik
Reply to  Abdul
9 months ago

with hindi

Akshat
Akshat
1 year ago

SaturnWeb Bro please upload the Avengers Trilogy 1080p Blu Ray Remux English Hindi as they have released in Blu Ray disks. U told that they will be uploaded soon. Please bro upload them now. Please ?? ?? ?? ?? ?.