The Angry Birds Movie 2 (2019) BluRay 1080p 10bit HEVC [Org BD 5.1 Hindi + DD 5.1 English] H265 ESubs

The Angry Birds Movie 2 (2019) BluRay 1080p 10bit HEVC [Org BD 5.1 Hindi + DD 5.1 English] H265 ESubs  

Encoded in 10 bit color at CRF 18.0, from a Blu-ray source, for the highest quality possible.

 

General

Format version                           : Version 4
File size                                : 4.58 GiB
Duration                                 : 1 h 36 min
Overall bit rate                         : 6 781 kb/s
Movie name                               : Angry Birds Movie 2
Encoded date                             : UTC 2019-12-07 12:01:46
Writing application                      : mkvmerge v29.0.0 (‘Like It Or Not’) 32-bit
Writing library                          : libebml v1.3.6 + libmatroska v1.4.9

Video
ID                                       : 1
Format                                   : HEVC
Format/Info                              : High Efficiency Video Coding
Format profile                           : Main [email protected]@Main
Codec ID                                 : V_MPEGH/ISO/HEVC
Duration                                 : 1 h 36 min
Bit rate                                 : 5 682 kb/s
Width                                    : 1 920 pixels
Height                                   : 1 040 pixels
Display aspect ratio                     : 1.85:1
Frame rate mode                          : Constant
Frame rate                               : 23.976 (24000/1001) FPS
Color space                              : YUV
Chroma subsampling                       : 4:2:0
Bit depth                                : 10 bits
Bits/(Pixel*Frame)                       : 0.119
Stream size                              : 3.84 GiB (84%)
Writing library                          : x265 3.2+5-354901970679:[Windows][GCC 9.2.0][64 bit] 10bit

Default                                  : Yes
Forced                                   : No

Audio #1
ID                                       : 3
Format                                   : AC-3
Format/Info                              : Audio Coding 3
Commercial name                          : Dolby Digital
Codec ID                                 : A_AC3
Duration                                 : 1 h 36 min
Bit rate mode                            : Constant
Bit rate                                 : 640 kb/s
Channel(s)                               : 6 channels
Channel layout                           : L R C LFE Ls Rs
Sampling rate                            : 48.0 kHz
Frame rate                               : 31.250 FPS (1536 SPF)
Bit depth                                : 16 bits
Compression mode                         : Lossy
Stream size                              : 443 MiB (9%)
Title                                    : Hindi Org BD 5.1 640 kbps
Language                                 : Hindi
Service kind                             : Complete Main
Default                                  : Yes
Forced                                   : Yes

Audio #2
ID                                       : 4
Format                                   : AC-3
Format/Info                              : Audio Coding 3
Commercial name                          : Dolby Digital
Codec ID                                 : A_AC3
Duration                                 : 1 h 36 min
Bit rate mode                            : Constant
Bit rate                                 : 448 kb/s
Channel(s)                               : 6 channels
Channel layout                           : L R C LFE Ls Rs
Sampling rate                            : 48.0 kHz
Frame rate                               : 31.250 FPS (1536 SPF)
Bit depth                                : 16 bits
Compression mode                         : Lossy
Stream size                              : 310 MiB (7%)
Title                                    : English BD 5.1 448 kbps
Language                                 : English
Service kind                             : Complete Main
Default                                  : No
Forced                                   : No

Text
ID                                       : 2
Format                                   : VobSub
Muxing mode                              : zlib
Codec ID                                 : S_VOBSUB
Codec ID/Info                            : Picture based subtitle format used on DVDs
Duration                                 : 1 h 34 min
Bit rate                                 : 14.1 kb/s
Count of elements                        : 1759
Stream size                              : 9.53 MiB (0%)
Language                                 : English
Default                                  : No
Forced                                   : No

Menu
00:00:00.000                             : en:Chapter 01
00:05:19.444                             : en:Chapter 02
00:12:05.766                             : en:Chapter 03
00:18:52.673                             : en:Chapter 04
00:24:11.658                             : en:Chapter 05
00:28:46.349                             : en:Chapter 06
00:34:48.252                             : en:Chapter 07
00:40:10.157                             : en:Chapter 08
00:47:11.078                             : en:Chapter 09
00:52:56.298                             : en:Chapter 10
00:58:04.481                             : en:Chapter 11
01:04:35.913                             : en:Chapter 12
01:09:55.649                             : en:Chapter 13
01:15:40.285                             : en:Chapter 14
01:21:11.116                             : en:Chapter 15
01:26:26.598                             : en:Chapter 16

235b29e358bf63a0bbf8aa2efc725c57.md.jpg
f037b70378e7c834c8cfe7f5d89b435a.md.jpg
5ded5b0ef5b9f7b75907538a078d9bb8.md.jpg
e0fd3d6074cf4170e36f2483e29f821f.md.jpg
638be8d5d154139b0350213aea9dfd07.md.jpg
3886024440e0f7a35cbc0337c40d8799.md.jpg
97c6005da40ccfd60f569e729e8743bf.md.jpg
7261e8728324baac622ace5d8905eedd.md.jpg
3811680350139c3757f9ab4ba569a9d3.md.jpg
ec00f2fd25c9000dc008d8779149105a.md.jpg
68ab8c012d6e1b96f1ec64d510ce8e34.md.jpg
d5475116485c2e0feada1764a95f087a.md.jpg
59583ecee7d5eb56aa27d0c1e6671348.md.jpg
ef2f5563cd077b51f9986ed42116169c.md.jpg
5ca2abd6453835bf05526b4efd01c5e6.md.jpg
fa1f2cb9598f64309fac1f2b4eb3e5d8.md.jpg
8473c6a430d0be689ba759a4fbd91e4a.md.jpg
693977c80865f0f816ad0357f4eef466.md.jpg
639571c62641116c565271514ee2e741.md.jpg
Download Torrent 
G- Drive Download 
https://sharer.pw/file/DOKWsDpMy0p
https://drive.klop.me/file/fb42d8070a
The File Locker Download 
https://thefileslocker.com/sghk94cwumar.html

0 0 vote
Article Rating
Subscribe
Notify of
guest
0 Comments
Inline Feedbacks
View all comments