The Amazing Spider-Man 2012 2160p BluRay x265 10bit HDR TrueHD 7.1 Atmos-TERMiNAL | 16 GB | G- Drive

The Amazing Spider-Man (2012)
Director: Marc Webb
Stars: Andrew Garfield, Emma Stone, Rhys Ifans

Runtime: 2h 16min (taken from IMDb)
Genre: Action, Adventure, Sci-Fi

Rating: 7,0 (may differ)
Votes: 523.589 (may differ)

Release Date: 3 July 2012 (USA) (taken from IMDb)
Viewer Rating (TV/MPAA): PG-13 (taken from IMDb)

Summary: After Peter Parker is bitten by a genetically altered spider, he gains newfound, spider-like powers and ventures out to solve the mystery of his parent’s mysterious death.
Format : Matroska
Format version : Version 4
File size : 16.1 GiB
Duration : 2 h 16 min
Overall bit rate mode : Variable
Overall bit rate : 16.9 Mb/s
Encoded date : UTC 2017-12-18 00:32:08
Writing application : mkvmerge v18.0.0 (‘Apricity’) 64-bit
Writing library : libebml v1.3.5 + libmatroska v1.4.8

Video
ID : 1
Format : HEVC
Format/Info : High Efficiency Video Coding
Format profile : Main [email protected]@High
HDR format : SMPTE ST 2086, HDR10 compatible
Codec ID : V_MPEGH/ISO/HEVC
Duration : 2 h 16 min
Bit rate : 10.7 Mb/s
Width : 3 840 pixels
Height : 1 606 pixels
Display aspect ratio : 2.40:1
Frame rate mode : Constant
Frame rate : 23.976 (24000/1001) FPS
Color space : YUV
Chroma subsampling : 4:2:0 (Type 2)
Bit depth : 10 bits
Bits/(Pixel*Frame) : 0.072
Stream size : 10.2 GiB (63%)
Writing library : x265 2.5+58-06979c042350:
Default : Yes
Forced : No
Color range : Limited
Color primaries : BT.2020
Transfer characteristics : PQ
Matrix coefficients : BT.2020 non-constant
Mastering display color primaries : Display P3
Mastering display luminance : min: 0.0050 cd/m2, max: 4000 cd/m2
Maximum Content Light Level : 4809 cd/m2
Maximum Frame-Average Light Level : 1138 cd/m2

Audio #1
ID : 2
Format : MLP FBA 16-ch
Format/Info : Meridian Lossless Packing FBA with 16-channel presentation
Commercial name : Dolby TrueHD with Dolby Atmos
Codec ID : A_TRUEHD
Duration : 2 h 16 min
Bit rate mode : Variable
Bit rate : 5 191 kb/s
Maximum bit rate : 8 358 kb/s
Channel(s) : 8 channels
Channel layout : L R C LFE Ls Rs Lb Rb
Sampling rate : 48.0 kHz
Frame rate : 1 200.000 FPS (40 SPF)
Compression mode : Lossless
Stream size : 4.94 GiB (31%)
Language : English
Default : Yes
Forced : No
Number of dynamic objects : 11
Bed channel count : 1 channel
Bed channel configuration : LFE

Audio #2
ID : 3
Format : AC-3
Format/Info : Audio Coding 3
Commercial name : Dolby Digital
Codec ID : A_AC3
Duration : 2 h 16 min
Bit rate mode : Constant
Bit rate : 640 kb/s
Channel(s) : 6 channels
Channel layout : L R C LFE Ls Rs
Sampling rate : 48.0 kHz
Frame rate : 31.250 FPS (1536 SPF)
Bit depth : 16 bits
Compression mode : Lossy
Stream size : 624 MiB (4%)
Language : English
Service kind : Complete Main
Default : No
Forced : No

Text #1
ID : 4
Format : PGS
Muxing mode : zlib
Codec ID : S_HDMV/PGS
Codec ID/Info : Picture based subtitle format used on BDs/HD-DVDs
Duration : 2 h 15 min
Bit rate : 23.8 kb/s
Count of elements : 2720
Stream size : 23.0 MiB (0%)
Title : American English
Language : English
Default : No
Forced : No

Download G- Drive 16 GB

0 0 vote
Article Rating
Subscribe
Notify of
guest
0 Comments
Inline Feedbacks
View all comments