Tezaab (1988) Hindi 1080p Untouched WebHD AVC DD Plus 2.0 {Music Video}

Thanks To Special 26

Format                         : Matroska
Format version                 : Version 4
File size                      : 2.12 GB
Overall bit rate mode          : Variable
Overall bit rate               : 13.9 Mb/s
Writing library : libebml v1.3.6 + libmatroska v1.4.9

Video
ID                             : 1
Format                         : AVC
Format/Info                    : Advanced Video Codec
Format profile                 : [email protected]
Format settings                : CABAC / 4 Ref Frames
Format settings, CABAC         : Yes
Format settings, ReFrames      : 4 frames
Codec ID                       : V_MPEG4/ISO/AVC
Bit rate mode                  : Variable
Bit rate                       : 13.7 Mb/s
Maximum bit rate               : 15.0 Mb/s
Width                          : 1 920 pixels
Height                         : 872 pixels
Display aspect ratio           : 2.2:1
Original display aspect ratio  : 2.2:1
Frame rate mode                : Constant
Frame rate                     : 25.000 FPS
Color space                    : YUV
Chroma subsampling             : 4:2:0
Bit depth                      : 8 bits
Scan type                      : Progressive
Bits/(Pixel*Frame)             : 0.327
Stream size                    : 728 MiB (98%)
Default                        : Yes
Forced                         : No
Color range                    : Limited
Color primaries                : BT.709
Transfer characteristics       : BT.709
Matrix coefficients            : BT.709

Audio
ID                             : 2
Format                         : E-AC-3
Format/Info                    : Enhanced AC-3
Commercial name                : Dolby Digital Plus
Codec ID                       : A_EAC3
Bit rate mode                  : Constant
Bit rate                       : 224 kb/s
Channel(s)                     : 2 channels
Channel layout                 : L R
Sampling rate                  : 48.0 kHz
Frame rate                     : 31.250 FPS (1536 SPF)
Compression mode               : Lossy
Stream size                    : 11.9 MiB (2%)
Title                          : Hindi
Language                       : Hindi
Service kind                   : Complete Main
Default                        : No
Forced                         : No


ScreenShots

d17c0dbec6ec8f88cb95720144a48eed.md.png
eeb9ba1b81c664e8f5d7554f9c4a30aa.md.png
253242b8df824e7dc3e67e37d57ad155.md.png
9d549a927d5037bb3e32bda35be3f995.md.png
a59cbf9c8394bb38053755efef27565e.md.png
d9c10ebdaf0c88968738891c15e51e72.md.png
ea9b575d2116d4b58434933237308cf0.md.png
1ffbf620cd21f94bf5eca6566bdb27e0.md.png
2cd5dd333ff07a4419e698a3521f49f2.md.png

{ G-drive } Download  Link 

0 0 vote
Article Rating
Subscribe
Notify of
guest
0 Comments
Inline Feedbacks
View all comments