Terminator Salvation 2009 MULTi UHD BluRay 2160p HDR DTS-HDMA 5.1 HEVC [+Hindi]-DDR | 20 GB |

SPECS

Source : UHD Blu-ray

Format                                  : Matroska
File size                                : 20.3 GiB
Duration                                : 1 h 54 min
Overall bit rate mode                    : Variable
Overall bit rate                        : 25.3 Mb/s

Video
Format                                  : HEVC/HDR
Bit rate                                : 15.1 Mb/s
Width                                    : 3 840 pixels
Height                                  : 1 600 pixels
Bit depth                                : 10 bits
Color primaries                          : BT.2020
Transfer characteristics                : PQ
Matrix coefficients                      : BT.2020 non-constant
Mastering display color primaries        : Display P3
Mastering display luminance              : min: 0.0001 cd/m2, max: 1000 cd/m2
Maximum Content Light Level              : 992 cd/m2
Maximum Frame-Average Light Level        : 523 cd/m2

Audio
Audio #1
ID                                      : 2
Format                                  : DTS XLL
Format/Info                              : Digital Theater Systems
Commercial name                          : DTS-HD Master Audio
Codec ID                                : A_DTS
Duration                                : 1 h 54 min
Bit rate mode                            : Variable
Bit rate                                : 2 424 kb/s
Channel(s)                              : 6 channels
Channel layout                          : C L R Ls Rs LFE
Sampling rate                            : 48.0 kHz
Frame rate                              : 93.750 FPS (512 SPF)
Bit depth                                : 16 bits
Compression mode                        : Lossless
Delay relative to video                  : 17 ms
Stream size                              : 1.94 GiB (10%)
Language                                : English
Default                                  : Yes
Forced                                  : No

Audio #2
ID                                      : 3
Format                                  : DTS
Format/Info                              : Digital Theater Systems
Codec ID                                : A_DTS
Duration                                : 1 h 54 min
Bit rate mode                            : Constant
Bit rate                                : 1 509 kb/s
Channel(s)                              : 6 channels
Channel layout                          : C L R Ls Rs LFE
Sampling rate                            : 48.0 kHz
Frame rate                              : 93.750 FPS (512 SPF)
Bit depth                                : 24 bits
Compression mode                        : Lossy
Stream size                              : 1.21 GiB (6%)
Language                                : German
Default                                  : No
Forced                                  : No

Audio #3
ID                                      : 4
Format                                  : DTS
Format/Info                              : Digital Theater Systems
Codec ID                                : A_DTS
Duration                                : 1 h 54 min
Bit rate mode                            : Constant
Bit rate                                : 1 509 kb/s
Channel(s)                              : 6 channels
Channel layout                          : C L R Ls Rs LFE
Sampling rate                            : 48.0 kHz
Frame rate                              : 93.750 FPS (512 SPF)
Bit depth                                : 24 bits
Compression mode                        : Lossy
Stream size                              : 1.21 GiB (6%)
Language                                : Spanish
Default                                  : No
Forced                                  : No

Audio #4
ID                                      : 5
Format                                  : AC-3
Format/Info                              : Audio Coding 3
Commercial name                          : Dolby Digital
Codec ID                                : A_AC3
Duration                                : 1 h 54 min
Bit rate mode                            : Constant
Bit rate                                : 640 kb/s
Channel(s)                              : 6 channels
Channel layout                          : L R C LFE Ls Rs
Sampling rate                            : 48.0 kHz
Frame rate                              : 31.250 FPS (1536 SPF)
Bit depth                                : 16 bits
Compression mode                        : Lossy
Delay relative to video                  : 32 ms
Stream size                              : 525 MiB (3%)
Language                                : Czech
Service kind                            : Complete Main
Default                                  : No
Forced                                  : No

Audio #5
ID                                      : 6
Format                                  : AC-3
Format/Info                              : Audio Coding 3
Commercial name                          : Dolby Digital
Codec ID                                : A_AC3
Duration                                : 1 h 54 min
Bit rate mode                            : Constant
Bit rate                                : 640 kb/s
Channel(s)                              : 6 channels
Channel layout                          : L R C LFE Ls Rs
Sampling rate                            : 48.0 kHz
Frame rate                              : 31.250 FPS (1536 SPF)
Bit depth                                : 16 bits
Compression mode                        : Lossy
Delay relative to video                  : 32 ms
Stream size                              : 525 MiB (3%)
Language                                : French
Service kind                            : Complete Main
Default                                  : No
Forced                                  : No

Audio #6
ID                                      : 7
Format                                  : AC-3
Format/Info                              : Audio Coding 3
Commercial name                          : Dolby Digital
Codec ID                                : A_AC3
Duration                                : 1 h 54 min
Bit rate mode                            : Constant
Bit rate                                : 640 kb/s
Channel(s)                              : 6 channels
Channel layout                          : L R C LFE Ls Rs
Sampling rate                            : 48.0 kHz
Frame rate                              : 31.250 FPS (1536 SPF)
Bit depth                                : 16 bits
Compression mode                        : Lossy
Delay relative to video                  : 32 ms
Stream size                              : 525 MiB (3%)
Language                                : Hindi
Service kind                            : Complete Main
Default                                  : No
Forced                                  : No

Audio #7
ID                                      : 8
Format                                  : AC-3
Format/Info                              : Audio Coding 3
Commercial name                          : Dolby Digital
Codec ID                                : A_AC3
Duration                                : 1 h 54 min
Bit rate mode                            : Constant
Bit rate                                : 640 kb/s
Channel(s)                              : 6 channels
Channel layout                          : L R C LFE Ls Rs
Sampling rate                            : 48.0 kHz
Frame rate                              : 31.250 FPS (1536 SPF)
Bit depth                                : 16 bits
Compression mode                        : Lossy
Delay relative to video                  : 32 ms
Stream size                              : 525 MiB (3%)
Language                                : Italian
Service kind                            : Complete Main
Default                                  : No
Forced                                  : No

Audio #8
ID                                      : 9
Format                                  : AC-3
Format/Info                              : Audio Coding 3
Commercial name                          : Dolby Digital
Codec ID                                : A_AC3
Duration                                : 1 h 54 min
Bit rate mode                            : Constant
Bit rate                                : 640 kb/s
Channel(s)                              : 6 channels
Channel layout                          : L R C LFE Ls Rs
Sampling rate                            : 48.0 kHz
Frame rate                              : 31.250 FPS (1536 SPF)
Bit depth                                : 16 bits
Compression mode                        : Lossy
Delay relative to video                  : 32 ms
Stream size                              : 525 MiB (3%)
Language                                : Chinese
Service kind                            : Complete Main
Default                                  : No
Forced                                  : No

Audio #9
ID                                      : 10
Format                                  : AC-3
Format/Info                              : Audio Coding 3
Commercial name                          : Dolby Digital
Codec ID                                : A_AC3
Duration                                : 1 h 54 min
Bit rate mode                            : Constant
Bit rate                                : 640 kb/s
Channel(s)                              : 6 channels
Channel layout                          : L R C LFE Ls Rs
Sampling rate                            : 48.0 kHz
Frame rate                              : 31.250 FPS (1536 SPF)
Bit depth                                : 16 bits
Compression mode                        : Lossy
Delay relative to video                  : 32 ms
Stream size                              : 525 MiB (3%)
Language                                : Polish
Service kind                            : Complete Main
Default                                  : No
Forced                                  : No

Audio #10
ID                                      : 11
Format                                  : AC-3
Format/Info                              : Audio Coding 3
Commercial name                          : Dolby Digital
Codec ID                                : A_AC3
Duration                                : 1 h 54 min
Bit rate mode                            : Constant
Bit rate                                : 640 kb/s
Channel(s)                              : 6 channels
Channel layout                          : L R C LFE Ls Rs
Sampling rate                            : 48.0 kHz
Frame rate                              : 31.250 FPS (1536 SPF)
Bit depth                                : 16 bits
Compression mode                        : Lossy
Delay relative to video                  : 32 ms
Stream size                              : 525 MiB (3%)
Language                                : Thai
Service kind                            : Complete Main
Default                                  : No
Forced                                  : No

Terminator Salvation.2009.MULTi.UHD.BluRay.2160p.HDR.DTS-HDMA.5.1.HEVC-DDR.part1.rar – 4.4 GB

Terminator Salvation.2009.MULTi.UHD.BluRay.2160p.HDR.DTS-HDMA.5.1.HEVC-DDR.part2.rar – 4.4 GB

Terminator Salvation.2009.MULTi.UHD.BluRay.2160p.HDR.DTS-HDMA.5.1.HEVC-DDR.part3.rar – 4.4 GB

Terminator Salvation.2009.MULTi.UHD.BluRay.2160p.HDR.DTS-HDMA.5.1.HEVC-DDR.part4.rar – 4.4 GB

Terminator Salvation.2009.MULTi.UHD.BluRay.2160p.HDR.DTS-HDMA.5.1.HEVC-DDR.part5.rar – 2.5 GB

0 0 vote
Article Rating
Subscribe
Notify of
guest
0 Comments
Inline Feedbacks
View all comments