Teri Meri Kahaani (2012) 1080p WeB-HD DL AVC DDP 5.1 ESuBS DuS-IcTv 3.6GB

TERI MERI KAHAANI (2012) 720p [DVDRiP] | wikimedea

Format : Matroska
Format version : Version 4
File size : 3.36 GiB
Duration : 1 h 57 min
Overall bit rate : 4 082 kb/s
Encoded date : UTC 2020-05-17 10:33:36
Writing application : mkvmerge v46.0.0 (‘No Deeper Escape’) 64-bit
Writing library : libebml v1.3.10 + libmatroska v1.5.2

Video
ID : 1
Format : AVC
Format/Info : Advanced Video Codec
Format profile : [email protected]
Format settings : CABAC / 4 Ref Frames
Format settings, CABAC : Yes
Format settings, Reference frames : 4 frames
Codec ID : V_MPEG4/ISO/AVC
Duration : 1 h 57 min
Bit rate : 3 500 kb/s
Width : 1 920 pixels
Height : 1 080 pixels
Display aspect ratio : 16:9
Frame rate mode : Constant
Frame rate : 24.000 FPS
Color space : YUV
Chroma subsampling : 4:2:0
Bit depth : 8 bits
Scan type : Progressive
Bits/(Pixel*Frame) : 0.070
Stream size : 2.83 GiB (84%)
Title : DusIcTV Present
Writing library : x264 core 148 r2579M 73ae2d1
Encoding settings : cabac=1 / ref=2 / deblock=1:0:0 / analyse=0x3:0x113 / me=hex / subme=2 / psy=1 / psy_rd=1.00:0.00 / mixed_ref=0 / me_range=16 / chroma_me=1 / trellis=0 / 8x8dct=1 / cqm=0 / deadzone=21,11 / fast_pskip=1 / chroma_qp_offset=0 / threads=4 / lookahead_threads=1 / sliced_threads=0 / nr=250 / decimate=1 / interlaced=0 / bluray_compat=0 / stitchable=1 / constrained_intra=0 / bframes=3 / b_pyramid=2 / b_adapt=1 / b_bias=0 / direct=1 / weightb=1 / open_gop=0 / weightp=1 / keyint=250 / keyint_min=24 / scenecut=40 / intra_refresh=0 / rc_lookahead=10 / rc=2pass / mbtree=1 / bitrate=3500 / ratetol=1.0 / qcomp=0.60 / qpmin=5 / qpmax=69 / qpstep=4 / cplxblur=20.0 / qblur=0.5 / ip_ratio=1.40 / aq=1:1.00
Language : Hindi
Default : Yes
Forced : No

Audio
ID : 2
Format : E-AC-3
Format/Info : Enhanced AC-3
Commercial name : Dolby Digital Plus
Codec ID : A_EAC3
Duration : 1 h 57 min
Bit rate mode : Constant
Bit rate : 640 kb/s
Channel(s) : 6 channels
Channel layout : L R C LFE Ls Rs
Sampling rate : 48.0 kHz
Frame rate : 31.250 FPS (1536 SPF)
Compression mode : Lossy
Stream size : 539 MiB (16%)
Title : DusIcTV Present (DDP 5.1)
Language : Hindi
Service kind : Complete Main
Default : Yes
Forced : No

Text #1
ID : 3
Format : S_TEXT/WEBVTT
Codec ID : S_TEXT/WEBVTT
Duration : 1 h 56 min
Bit rate : 55 b/s
Count of elements : 1406
Stream size : 47.4 KiB (0%)
Title : DusIcTV Present
Language : English
Default : Yes
Forced : No

Text #2
ID : 4
Format : S_TEXT/WEBVTT
Codec ID : S_TEXT/WEBVTT
Duration : 1 h 56 min
Bit rate : 71 b/s
Count of elements : 1404
Stream size : 61.3 KiB (0%)
Title : DusIcTV Present
Language : Arabic
Default : No
Forced : No

Text #3
ID : 5
Format : S_TEXT/WEBVTT
Codec ID : S_TEXT/WEBVTT
Duration : 1 h 56 min
Bit rate : 40 b/s
Count of elements : 1406
Stream size : 34.4 KiB (0%)
Title : DusIcTV Present
Language : Chinese
Default : No
Forced : No

Text #4
ID : 6
Format : S_TEXT/WEBVTT
Codec ID : S_TEXT/WEBVTT
Duration : 1 h 52 min
Bit rate : 57 b/s
Count of elements : 1229
Stream size : 47.3 KiB (0%)
Title : DusIcTV Present
Language : Turkish
Default : No
Forced : No


vlcsnap-2020-06-15-20h21m56s340vlcsnap-2020-06-15-20h22m02s528vlcsnap-2020-06-15-20h22m06s298vlcsnap-2020-06-15-20h22m10s952vlcsnap-2020-06-15-20h22m37s391vlcsnap-2020-06-15-20h22m42s245vlcsnap-2020-06-15-20h22m46s585
Gdrive Single Link+Download
https://bit.ly/2N1QHyA

PandaFiles Single Link+Download
https://bit.ly/3fuFAdN

0 0 vote
Article Rating
Subscribe
Notify of
guest
0 Comments
Inline Feedbacks
View all comments